<?xml version="1.0" standalone="no"?>
<!DOCTYPE svg PUBLIC "-//W3C//DTD SVG 1.1//EN" "http://www.w3.org/Graphics/SVG/1.1/DTD/svg11.dtd">
<svg xmlns="http://www.w3.org/2000/svg">
<defs >
<font id="Asap" horiz-adv-x="536" ><font-face
    font-family="Asap Medium"
    units-per-em="1000"
    panose-1="2 15 6 4 3 2 2 6 2 3"
    ascent="934"
    descent="-212"
    alphabetic="0" />
<glyph unicode=" " glyph-name="space" horiz-adv-x="240" />
<glyph unicode="!" glyph-name="exclam" horiz-adv-x="294" d="M105 208T105 233V677Q105 702 151 702H178Q223 702 223 678Q213 546 209 487Q203 395 189 233Q187 220 179 214T152 208H141Q105 208 105 233ZM91 -2T91 23V96Q91 121 137 121H158Q204 121 204 96V23Q204
-2 158 -2H137Q91 -2 91 23Z" />
<glyph unicode="&quot;" glyph-name="quotedbl" horiz-adv-x="320" d="M323 470T320 487L298 677Q296 689 308 695T344 702H354Q378 702 390 696T400 677L377 487Q374 470 352 470H346Q323 470 320 487ZM201 470T198 487L176 677Q174 689 186 695T222 702H232Q256
702 268 696T278 677L255 487Q252 470 230 470H224Q201 470 198 487Z" />
<glyph unicode="#" glyph-name="numbersign" horiz-adv-x="534" d="M86 -2T79 2T71 17Q71 24 102 192H35Q23 192 18 200T13 228V243Q13 262 18 270T35 279H118L143 415H71Q59 415 54 423T49 451V466Q49 485 54 493T71 502H158L188 661Q190 674 199 680T235 686H242Q274
686 274 669L243 502H355L384 661Q386 674 396 680T431 686H439Q455 686 463 682T472 669L442 502H500Q512 502 517 494T522 466V451Q522 432 517 424T500 415H425L401 279H468Q480 279 485 271T490 243V228Q490 209 485 201T468 192H384L354 23Q352 10 342 4T307
-2H301Q283 -2 276 2T268 17Q268 24 299 192H188L157 23Q154 10 145 4T110 -2H104Q86 -2 79 2ZM315 279L340 415H229L204 279H315Z" />
<glyph unicode="$" glyph-name="dollar" horiz-adv-x="500" d="M469 110T424 59T288 -3V-54Q288 -74 262 -74H257Q231 -74 231 -54V-6Q155 -5 93 21Q64 32 48 45T31 71Q31 86 47 110T74 135Q77 135 84 131T97 124Q128 108 159 98T231 86V313L226 315Q137 351 91
400T44 517Q44 594 93 643T231 702V742Q231 762 257 762H262Q288 762 288 742V703Q322 701 355 693T411 673Q437 658 437 643Q437 629 423 605T398 580Q394 580 384 584T365 593Q332 608 288 613V404Q378 365 423 315T469 196Q469 110 424 59ZM147 491T168 470T231
429V612Q192 606 170 583T147 523Q147 491 168 470ZM326 99T346 121T366 185Q366 222 346 246T288 289V91Q326 99 346 121Z" />
<glyph unicode="%" glyph-name="percent" horiz-adv-x="765" d="M135 378T95 413T54 541Q54 634 94 670T195 707Q254 707 294 671T335 541Q335 450 295 414T195 378Q135 378 95 413ZM169 -6T163 -3T157 5Q157 9 161 16L530 683Q542 705 571 705H587Q598 705 604
702T610 694Q610 693 606 683L238 16Q225 -6 196 -6H180Q169 -6 163 -3ZM260 441T260 541Q260 586 247 614T195 643Q156 643 143 615T130 541Q130 498 143 470T195 441Q260 441 260 541ZM511 -6T471 30T430 157Q430 322 570 322Q630 322 670 286T711 157Q711 66
670 30T570 -6Q511 -6 471 30ZM636 57T636 157Q636 202 623 230T570 259Q531 259 519 231T506 157Q506 113 519 85T570 57Q636 57 636 157Z" />
<glyph unicode="&amp;" glyph-name="ampersand" horiz-adv-x="624" d="M604 83T611 62T618 29Q618 -7 538 -7Q469 -7 434 36Q361 -7 266 -7Q208 -7 157 15T74 85T42 203Q42 273 77 321T165 386V390Q121 407 93 445T65 537Q65 618 120 662T268 707Q305 707 332
700T360 672Q360 655 353 634T335 613Q330 613 313 617T277 622Q217 622 193 592T168 523Q168 496 181 471T223 430T293 413H404L417 515Q420 540 455 540H471Q507 540 507 515V413H581Q593 413 598 405T604 377V364Q604 345 599 337T581 328H507V143Q507 107 520
93T556 78Q570 78 579 80T594 83Q604 83 611 62ZM147 139T186 109T278 78Q337 78 405 112Q404 118 404 131V328H288Q219 328 183 300T147 205Q147 139 186 109Z" />
<glyph unicode="&apos;" glyph-name="quotesingle" horiz-adv-x="192" d="M70 470T67 487L45 677Q43 689 55 695T91 702H101Q125 702 137 696T147 677L124 487Q121 470 99 470H93Q70 470 67 487Z" />
<glyph unicode="(" glyph-name="parenleft" horiz-adv-x="301" d="M238 -211T228 -198Q147 -113 101 14T54 286Q54 430 100 556T228 771Q239 783 251 783Q263 783 276 774T289 752Q289 742 281 731Q215 641 180 528T145 286Q145 157 179 44T280 -158Q288 -169
288 -178Q288 -188 276 -199T251 -211Q238 -211 228 -198Z" />
<glyph unicode=")" glyph-name="parenright" horiz-adv-x="301" d="M37 -210T24 -200T10 -178Q10 -173 17 -162Q84 -72 119 42T155 286Q155 415 121 528T20 731Q12 742 12 751Q12 761 24 772T49 784Q61 784 72 771Q153 686 199 559T246 286Q246 142 200 16T72
-198Q63 -210 49 -210Q37 -210 24 -200Z" />
<glyph unicode="*" glyph-name="asterisk" horiz-adv-x="373" d="M93 413T84 421T75 436Q75 442 81 451L148 544L57 574Q40 578 40 591Q40 602 46 610T61 619Q68 619 72 617L164 587V686Q164 709 187 709Q210 709 210 686V587L302 617Q306 619 312 619Q320 619
327 612T334 592Q334 578 317 574L225 544L293 451Q298 444 298 436Q298 429 290 421T273 413Q264 413 256 424L187 520L118 424Q111 413 101 413Q93 413 84 421Z" />
<glyph unicode="+" glyph-name="plus" horiz-adv-x="560" d="M257 -1T249 4T240 21V193H70Q58 193 53 201T47 228V235Q47 254 52 262T70 271H240V443Q240 455 248 460T276 466H285Q304 466 312 461T320 443V271H490Q502 271 507 263T513 235V228Q513 209 508 201T490
193H320V21Q320 9 312 4T285 -1H276Q257 -1 249 4Z" />
<glyph unicode="," glyph-name="comma" horiz-adv-x="198" d="M28 -119T18 -115T7 -102Q7 -91 16 -75Q32 -40 41 -3T50 86Q50 102 61 111T96 121H107Q129 121 141 113T153 89Q153 34 133 -14T86 -90T40 -119Q28 -119 18 -115Z" />
<glyph unicode="-" glyph-name="hyphen" horiz-adv-x="320" d="M51 225T46 233T40 261V270Q40 289 45 297T63 305H257Q269 305 274 297T280 270V261Q280 242 275 234T257 225H63Q51 225 46 233Z" />
<glyph unicode="." glyph-name="period" horiz-adv-x="198" d="M43 -2T43 23V96Q43 121 89 121H110Q156 121 156 96V23Q156 -2 110 -2H89Q43 -2 43 23Z" />
<glyph unicode="/" glyph-name="slash" horiz-adv-x="422" d="M34 -77T27 -74T19 -62Q19 -55 27 -35L322 678Q328 693 337 698T366 703H373Q404 703 404 687Q404 679 393 655L98 -59Q94 -70 85 -73T59 -77H51Q34 -77 27 -74Z" />
<glyph unicode="0" glyph-name="zero" horiz-adv-x="535" d="M201 -7T149 32T67 152T37 350Q37 467 67 547T149 667T267 707Q333 707 385 668T468 548T499 350Q499 233 469 153T386 33T267 -7Q201 -7 149 32ZM323 78T359 145T395 350Q395 488 359 555T267 622Q212
622 177 555T141 350Q141 212 176 145T267 78Q323 78 359 145Z" />
<glyph unicode="1" glyph-name="one" horiz-adv-x="535" d="M69 0T64 8T58 36V49Q58 68 63 76T81 85H243V598L78 571Q67 571 61 591T55 631Q55 648 75 653L312 703Q324 703 335 697T346 681V85H479Q491 85 496 77T502 49V36Q502 17 497 9T479 0H81Q69 0 64 8Z" />
<glyph unicode="2" glyph-name="two" horiz-adv-x="535" d="M60 0T53 19T46 57Q46 69 50 73L307 393Q344 442 355 467T366 524Q366 569 335 595T250 621Q213 621 187 611T133 584Q115 573 110 573Q98 573 85 593T71 628Q71 650 101 668T175 696T256 707Q356 707
413 659T470 529Q470 484 457 449T409 365T290 215L184 84H455Q467 84 472 76T478 49V36Q478 17 473 9T455 0H69Q60 0 53 19Z" />
<glyph unicode="3" glyph-name="three" horiz-adv-x="535" d="M196 -7T149 2T72 26T42 58Q42 72 56 93T81 115Q86 115 109 106Q138 94 167 86T236 78Q288 78 327 108T367 205Q367 271 332 299T226 328H195Q183 328 178 336T172 364V377Q172 396 177 404T195 412H221Q264
412 292 430T332 476T345 530Q345 567 320 594T237 621Q197 621 171 614T122 596Q106 589 101 589Q91 589 77 611T63 648Q63 673 124 690T246 707Q339 707 394 661T449 530Q449 480 421 444T349 390V386Q401 370 436 322T472 203Q472 133 440 86T357 16T248 -7Q196
-7 149 2Z" />
<glyph unicode="4" glyph-name="four" horiz-adv-x="535" d="M333 -2T333 23V160H41Q32 160 23 183T14 223Q14 232 16 234L335 687Q347 702 377 702H396Q435 702 435 677V245H494Q506 245 511 237T517 209V196Q517 177 512 169T494 160H435V23Q435 -2 396 -2H372Q333
-2 333 23ZM333 245V466Q333 518 340 547L336 549L127 245H333Z" />
<glyph unicode="5" glyph-name="five" horiz-adv-x="535" d="M181 -7T137 2T69 27T44 57Q44 72 59 93T85 115Q89 115 96 112T109 107Q138 94 166 86T233 78Q293 78 333 113T374 213Q374 276 333 309T210 342H118Q101 342 95 349T88 375L105 667Q106 684 114 692T140
700H414Q426 700 431 692T437 664V648Q437 631 432 623T414 615H202L190 427H234Q338 427 408 378T479 214Q479 96 408 45T234 -7Q181 -7 137 2Z" />
<glyph unicode="6" glyph-name="six" horiz-adv-x="535" d="M163 -6T105 59T46 249Q46 392 112 494T260 649T379 703Q395 703 406 680T417 641Q417 630 408 627Q316 592 255 528T169 381Q224 412 294 412Q344 412 388 388T459 318T487 207Q487 141 457 93T377
19T265 -6Q163 -6 105 59ZM296 79T322 93T366 136T383 203Q383 265 350 296T264 327Q208 327 152 296Q151 286 150 272T149 240Q149 152 183 116T269 79Q296 79 322 93Z" />
<glyph unicode="7" glyph-name="seven" horiz-adv-x="535" d="M117 -2T106 2T94 16Q94 18 98 30L375 615H76Q64 615 59 623T53 651V664Q53 683 58 691T76 700H471Q478 700 486 678T494 638Q494 632 492 626L206 15Q198 -2 160 -2H141Q117 -2 106 2Z" />
<glyph unicode="8" glyph-name="eight" horiz-adv-x="535" d="M165 -7T105 48T45 202Q45 273 74 314T153 379Q72 428 72 529Q72 610 127 658T271 707Q357 707 412 660T467 533Q467 475 442 440T373 382Q428 357 459 316T490 199Q490 103 430 48T268 -7Q165 -7
105 48ZM366 461T366 530Q366 575 339 598T270 622Q228 622 201 599T174 530Q174 497 189 476T227 442T289 415Q366 461 366 530ZM319 78T352 111T386 201Q386 241 369 266T325 304T253 335Q248 336 230 343Q192 320 171 287T149 204Q149 144 182 111T268 78Q319
78 352 111Z" />
<glyph unicode="9" glyph-name="nine" horiz-adv-x="535" d="M139 -3T129 20T118 59Q118 70 127 73Q219 107 279 171T365 319Q311 288 241 288Q191 288 147 312T76 382T48 493Q48 559 78 607T158 681T269 706Q372 706 430 641T489 451Q489 308 423 206T274 51T156
-3Q139 -3 129 20ZM326 373T382 404Q386 442 386 460Q386 548 352 584T265 621Q238 621 212 607T168 564T151 497Q151 435 185 404T271 373Q326 373 382 404Z" />
<glyph unicode=":" glyph-name="colon" horiz-adv-x="198" d="M43 402T43 427V500Q43 525 89 525H110Q156 525 156 500V427Q156 402 110 402H89Q43 402 43 427ZM43 -2T43 23V96Q43 121 89 121H110Q156 121 156 96V23Q156 -2 110 -2H89Q43 -2 43 23Z" />
<glyph unicode=";" glyph-name="semicolon" horiz-adv-x="198" d="M43 402T43 427V500Q43 525 89 525H110Q156 525 156 500V427Q156 402 110 402H89Q43 402 43 427ZM28 -119T18 -115T7 -102Q7 -91 16 -75Q32 -40 41 -3T50 86Q50 102 61 111T96 121H107Q129 121
141 113T153 89Q153 34 133 -14T86 -90T40 -119Q28 -119 18 -115Z" />
<glyph unicode="&lt;" glyph-name="less" horiz-adv-x="560" d="M491 7T483 10L69 186Q56 192 51 200T45 223V241Q45 255 50 263T69 278L482 453Q488 456 497 456Q506 456 511 449T516 426V411Q516 379 491 369L153 232L491 95Q516 84 516 52V38Q516 7 498 7Q491
7 483 10Z" />
<glyph unicode="=" glyph-name="equal" horiz-adv-x="560" d="M58 268T53 276T47 303V315Q47 334 52 342T70 351H490Q502 351 507 343T513 315V303Q513 284 508 276T490 268H70Q58 268 53 276ZM58 99T53 107T47 135V146Q47 165 52 173T70 182H490Q502 182 507
174T513 146V135Q513 116 508 108T490 99H70Q58 99 53 107Z" />
<glyph unicode="&gt;" glyph-name="greater" horiz-adv-x="560" d="M54 7T49 15T44 38V52Q44 83 69 95L407 232L70 369Q45 379 45 411V426Q45 456 63 456Q73 456 78 453L491 278Q504 272 510 264T516 241V223Q516 209 510 201T491 186L78 10Q71 7 63 7Q54 7 49 15Z" />
<glyph unicode="?" glyph-name="question" horiz-adv-x="445" d="M134 208T134 233Q134 268 155 308T215 388Q266 441 287 468T308 526Q308 616 197 616Q169 616 147 609T100 591Q95 589 88 586T76 583Q65 583 50 606T35 643Q35 671 92 689T212 707Q277 707 324
685T395 623T420 536Q420 487 396 450T326 368Q278 322 255 294T226 230Q224 218 216 213T187 208H170Q134 208 134 233ZM121 -2T121 23V96Q121 121 166 121H188Q233 121 233 96V23Q233 -2 188 -2H166Q121 -2 121 23Z" />
<glyph unicode="@" glyph-name="at" horiz-adv-x="974" d="M645 706T720 666T836 552T878 381Q878 291 850 217T773 99T662 55Q615 55 587 79T557 136Q535 96 502 76T430 55Q373 55 331 98T288 237Q288 315 313 376T385 472T491 506Q526 506 554 492T600 459Q608
486 614 494T640 502H647Q676 502 676 480L672 438Q644 177 644 157Q644 117 683 117Q718 117 750 153T802 251T822 381Q822 464 788 527T690 624T545 659Q437 659 347 603T205 451T152 238Q152 145 186 73T281 -38T421 -78Q464 -78 492 -72T546 -56Q567 -49 575
-49Q589 -49 589 -75Q589 -101 533 -113T421 -125Q325 -125 251 -80T136 48T95 238Q95 368 154 475T317 644T545 706Q645 706 720 666ZM567 262Q568 272 573 324T585 403Q548 433 504 433Q436 433 406 381T376 243Q376 183 397 156T455 128Q485 128 514 155T565
242L567 262Z" />
<glyph unicode="A" glyph-name="A" horiz-adv-x="613" d="M9 -2T9 16Q9 22 12 32L244 685Q250 702 289 702H324Q363 702 369 685L601 31Q604 22 604 16Q604 -2 559 -2H541Q503 -2 496 15L443 167H166L114 15Q107 -2 72 -2H57Q9 -2 9 16ZM411 259L320 523Q316 537
313 556T307 583H305Q297 541 290 523L198 259H411Z" />
<glyph unicode="B" glyph-name="B" horiz-adv-x="593" d="M107 0T99 8T91 33V667Q91 684 99 692T124 700H308Q421 700 478 653T536 523Q536 474 504 430T426 371L427 367Q446 363 478 345T538 290T565 202Q565 0 307 0H124Q107 0 99 8ZM300 405Q355 405 390 435T425
510Q425 560 395 584T298 608H198V405H300ZM330 92Q389 92 422 122T455 207Q455 258 419 285T313 313H198V92H330Z" />
<glyph unicode="C" glyph-name="C" horiz-adv-x="619" d="M212 -7T133 80T54 351Q54 707 380 707Q429 707 476 697T552 670Q577 655 577 642Q577 626 562 600T534 574Q531 574 509 585T455 605T381 614Q270 614 217 551T164 350Q164 215 216 150T378 85Q426 85
461 96T528 124Q542 132 547 132Q556 132 565 120T582 92T589 69Q589 49 556 32Q526 15 477 4T378 -7Q212 -7 133 80Z" />
<glyph unicode="D" glyph-name="D" horiz-adv-x="695" d="M107 0T99 8T91 33V667Q91 684 99 692T124 700H329Q473 700 557 615T641 350Q641 171 557 86T329 0H124Q107 0 99 8ZM324 92Q419 92 475 155T531 350Q531 481 475 544T324 608H198V92H324Z" />
<glyph unicode="E" glyph-name="E" horiz-adv-x="546" d="M108 0T100 8T92 33V667Q92 684 100 692T125 700H474Q486 700 491 692T497 664V644Q497 625 492 617T474 608H199V404H445Q457 404 462 396T468 368V348Q468 329 463 321T445 312H199V92H475Q487 92 492
84T498 56V36Q498 17 493 9T475 0H125Q108 0 100 8Z" />
<glyph unicode="F" glyph-name="F" horiz-adv-x="503" d="M91 -2T91 23V667Q91 684 99 692T124 700H443Q455 700 460 692T466 664V644Q466 625 461 617T443 608H198V381H428Q440 381 445 373T451 345V325Q451 306 446 298T428 289H198V23Q198 -2 152 -2H137Q91 -2 91 23Z" />
<glyph unicode="G" glyph-name="G" horiz-adv-x="672" d="M578 369T586 361T594 336V67Q594 27 528 10T368 -7Q54 -7 54 346Q54 707 380 707Q427 707 473 698T548 673T578 642Q578 626 563 600T535 574Q532 574 510 585T456 605T381 614Q265 614 215 549T164 352Q164
227 212 156T373 85Q436 85 487 97V277H378Q366 277 361 285T355 313V333Q355 352 360 360T378 369H561Q578 369 586 361Z" />
<glyph unicode="H" glyph-name="H" horiz-adv-x="733" d="M92 -2T92 23V677Q92 702 138 702H154Q199 702 199 677V405H535V677Q535 702 581 702H596Q642 702 642 677V23Q642 -2 596 -2H581Q535 -2 535 23V312H199V23Q199 -2 154 -2H138Q92 -2 92 23Z" />
<glyph unicode="I" glyph-name="I" horiz-adv-x="283" d="M87 -2T87 23V677Q87 702 133 702H149Q195 702 195 677V23Q195 -2 149 -2H133Q87 -2 87 23Z" />
<glyph unicode="J" glyph-name="J" horiz-adv-x="402" d="M74 -7T39 1T4 29Q4 44 11 69T32 95Q37 95 54 91T93 87Q158 87 187 114T217 204V677Q217 702 262 702H278Q324 702 324 677V204Q324 105 273 49T112 -7Q74 -7 39 1Z" />
<glyph unicode="K" glyph-name="K" horiz-adv-x="576" d="M89 -2T89 23V677Q89 702 135 702H150Q196 702 196 677V382H200L425 687Q436 702 481 702H502Q522 702 532 698T543 688Q543 680 534 668L300 361L579 30Q587 18 587 12Q587 5 576 2T540 -2H515Q493 -2
479 1T458 13L200 330L196 329V23Q196 -2 150 -2H135Q89 -2 89 23Z" />
<glyph unicode="L" glyph-name="L" horiz-adv-x="484" d="M107 0T99 8T91 33V677Q91 702 137 702H152Q198 702 198 677V92H456Q468 92 473 84T479 56V36Q479 17 474 9T456 0H124Q107 0 99 8Z" />
<glyph unicode="M" glyph-name="M" horiz-adv-x="843" d="M386 187T377 202L215 486Q209 496 191 529L187 528Q189 511 189 475V23Q189 -2 143 -2H130Q84 -2 84 23V677Q84 702 130 702H171Q207 702 219 681L401 363Q417 336 422 313Q428 329 447 365L627 681Q638
702 675 702H713Q759 702 759 677V23Q759 -2 713 -2H700Q654 -2 654 23V470Q654 506 656 524L652 525Q640 501 628 481L468 202Q459 187 441 187H404Q386 187 377 202Z" />
<glyph unicode="N" glyph-name="N" horiz-adv-x="719" d="M84 -2T84 23V677Q84 702 130 702H157Q175 702 186 698T206 681L494 243Q512 217 528 184L532 185Q530 208 530 253V677Q530 702 576 702H589Q635 702 635 677V23Q635 -2 589 -2H564Q547 -2 537 2T520
16L225 463Q208 487 191 523L187 522Q189 499 189 454V23Q189 -2 143 -2H130Q84 -2 84 23Z" />
<glyph unicode="O" glyph-name="O" horiz-adv-x="731" d="M214 -7T134 85T54 351Q54 526 134 616T365 707Q518 707 597 617T677 351Q677 176 597 85T365 -7Q214 -7 134 85ZM463 85T515 153T567 351Q567 481 516 547T365 614Q266 614 215 548T164 351Q164 221 215
153T365 85Q463 85 515 153Z" />
<glyph unicode="P" glyph-name="P" horiz-adv-x="570" d="M80 -2T80 23V667Q80 684 88 692T113 700H318Q408 700 477 657T546 497Q546 413 507 367T418 304T328 288H187V23Q187 -2 142 -2H126Q80 -2 80 23ZM324 380Q365 380 400 406T435 497Q435 559 400 583T314
608H187V380H324Z" />
<glyph unicode="Q" glyph-name="Q" horiz-adv-x="731" d="M634 -147T389 -50Q312 -18 241 9Q54 83 54 348Q54 523 134 615T365 707Q517 707 597 615T677 348Q677 213 629 128T489 13V8L673 -51Q687 -56 687 -67Q687 -75 681 -95T664 -131T642 -147Q634 -147 389
-50ZM463 82T515 150T567 348Q567 477 515 545T365 614Q268 614 216 546T164 348Q164 219 216 151T365 82Q463 82 515 150Z" />
<glyph unicode="R" glyph-name="R" horiz-adv-x="610" d="M89 -2T89 23V667Q89 684 97 692T122 700H298Q420 700 480 656T541 520Q541 459 510 417T425 354V350Q451 341 471 312T510 234L591 31Q595 17 595 15Q595 -2 547 -2H528Q511 -2 499 2T483 15L406 211Q386
261 357 279T271 298H196V23Q196 -2 150 -2H135Q89 -2 89 23ZM317 391Q364 391 397 424T431 503Q431 555 399 581T310 608H196V391H317Z" />
<glyph unicode="S" glyph-name="S" horiz-adv-x="500" d="M185 -7T133 7T54 42Q33 57 33 71Q33 86 49 110T75 135Q82 135 98 124Q131 107 163 96T240 85Q292 85 326 112T361 189Q361 221 344 242T302 277T231 310L209 319Q157 340 124 361T69 419T46 517Q46 575
75 618T156 684T272 707Q311 707 352 697T418 671Q439 658 439 643Q439 629 425 605T400 580Q395 580 371 592Q325 614 275 614Q219 614 188 588T156 518Q156 486 172 466T212 435T284 405Q343 382 380 361T444 299T471 195Q471 98 409 46T248 -7Q185 -7 133 7Z"
/>
<glyph unicode="T" glyph-name="T" horiz-adv-x="549" d="M222 -2T222 23V608H39Q27 608 22 616T17 644V664Q17 683 22 691T39 700H510Q522 700 527 692T532 664V644Q532 625 527 617T510 608H329V23Q329 -2 283 -2H268Q222 -2 222 23Z" />
<glyph unicode="U" glyph-name="U" horiz-adv-x="712" d="M223 -7T151 54T78 227V677Q78 702 124 702H139Q185 702 185 677V228Q185 165 233 125T356 85Q405 85 444 103T505 154T527 228V677Q527 702 573 702H588Q634 702 634 677V227Q634 116 562 55T356 -7Q223
-7 151 54Z" />
<glyph unicode="V" glyph-name="V" horiz-adv-x="617" d="M251 -2T246 15L20 669Q17 678 17 684Q17 702 65 702H82Q121 702 128 682L285 220Q301 174 309 125H313Q320 165 338 221L494 682Q501 702 540 702H552Q600 702 600 684Q600 679 597 668L372 15Q367 -2
327 -2H290Q251 -2 246 15Z" />
<glyph unicode="W" glyph-name="W" horiz-adv-x="910" d="M198 -2T193 17L26 668Q24 678 24 682Q24 702 72 702H87Q130 702 134 682L239 264Q248 228 255 186T265 117H269Q287 208 295 241L405 684Q409 702 448 702H471Q510 702 514 684L619 264Q628 228 635 186T645
117H649Q658 177 674 241L783 682Q787 702 831 702H838Q886 702 886 682L884 668L714 17Q710 -2 669 -2H619Q579 -2 574 17L486 360Q477 390 469 437T456 526H452Q448 490 442 449T429 384L333 17Q328 -2 288 -2H238Q198 -2 193 17Z" />
<glyph unicode="X" glyph-name="X" horiz-adv-x="611" d="M17 -2T17 16Q17 22 25 36L244 365L49 664Q40 678 40 684Q40 702 91 702H113Q132 702 143 699T161 686L308 461L460 687Q470 702 508 702H524Q575 702 575 684Q575 678 566 664L369 368L587 36Q595 23
595 16Q595 7 583 3T544 -2H522Q503 -2 492 1T474 14L304 272L132 13Q127 4 115 1T84 -2H67Q17 -2 17 16Z" />
<glyph unicode="Y" glyph-name="Y" horiz-adv-x="559" d="M226 -2T226 23V352L20 664Q11 676 11 684Q11 702 62 702H83Q102 702 113 699T130 686L282 449L437 687Q447 702 487 702H502Q548 701 548 684Q548 677 540 664L333 349V23Q333 -2 287 -2H272Q226 -2 226 23Z" />
<glyph unicode="Z" glyph-name="Z" horiz-adv-x="616" d="M54 0T45 23T35 63Q35 71 38 75L426 608H90Q78 608 73 617T67 647V661Q67 682 72 691T90 700H547Q554 700 564 677T574 636Q574 628 570 623L183 92H549Q561 92 566 83T572 53V39Q572 18 567 9T549 0H63Q54
0 45 23Z" />
<glyph unicode="[" glyph-name="bracketleft" horiz-adv-x="291" d="M99 -138T91 -130T83 -105V735Q83 752 91 760T116 768H238Q250 768 255 761T261 736V728Q261 711 256 704T238 696H169V-66H238Q250 -66 255 -74T261 -99V-106Q261 -123 256 -130T238 -138H116Q99
-138 91 -130Z" />
<glyph unicode="\" glyph-name="backslash" horiz-adv-x="422" d="M346 -77T337 -74T324 -59L29 655Q19 676 19 687Q19 703 49 703H56Q75 703 84 698T100 678L395 -35Q404 -58 404 -62Q404 -77 371 -77H363Q346 -77 337 -74Z" />
<glyph unicode="]" glyph-name="bracketright" horiz-adv-x="291" d="M41 -138T36 -131T30 -106V-99Q30 -82 35 -74T53 -66H123V696H53Q41 696 36 703T30 728V736Q30 753 35 760T53 768H176Q193 768 201 760T209 735V-105Q209 -122 201 -130T176 -138H53Q41 -138
36 -131Z" />
<glyph unicode="^" glyph-name="asciicircum" horiz-adv-x="450" d="M63 319T56 324T48 339Q48 346 51 353L177 662Q182 675 190 680T214 685H237Q251 685 259 680T273 662L399 353Q402 346 402 339Q402 330 395 325T374 319H365Q335 319 325 344L225 590L124
344Q118 331 109 325T85 319H76Q63 319 56 324Z" />
<glyph unicode="_" glyph-name="underscore" horiz-adv-x="535" d="M-20 -138T-20 -109V-102Q-20 -73 3 -73H533Q556 -73 556 -102V-109Q556 -138 533 -138H3Q-20 -138 -20 -109Z" />
<glyph unicode="`" glyph-name="grave" horiz-adv-x="170" d="M120 575T107 580T80 601L25 661Q11 676 6 685T0 702Q0 711 12 714T49 718Q83 718 96 712T118 691L158 616Q159 613 164 604T170 588Q170 575 142 575Q120 575 107 580Z" />
<glyph unicode="a" glyph-name="a" horiz-adv-x="545" d="M135 -7T91 31T47 142Q47 243 131 283T366 325V368Q366 403 342 424T265 445Q224 445 194 436T142 416T117 405Q106 405 92 428T77 464Q77 478 103 493T173 519T266 530Q365 530 416 488T468 370V156Q468
89 474 59T480 25Q480 11 456 5T410 -1Q394 -1 388 14T378 46T373 69Q346 37 306 15T211 -7Q135 -7 91 31ZM272 79T305 97T366 146V246Q269 246 211 228T153 150Q153 116 172 98T228 79Q272 79 305 97Z" />
<glyph unicode="b" glyph-name="b" horiz-adv-x="569" d="M283 -7T245 12T175 68Q169 33 159 14Q155 5 147 2T124 -2H118Q80 -2 80 23V728Q80 753 125 753H136Q182 753 182 728V484Q211 506 242 518T313 530Q407 530 462 459T518 262Q518 182 495 121T428 27T326
-7Q283 -7 245 12ZM356 80T384 128T413 267Q413 353 382 398T290 443Q261 443 233 434T182 406V146Q208 115 239 98T302 80Q356 80 384 128Z" />
<glyph unicode="c" glyph-name="c" horiz-adv-x="485" d="M171 -7T110 57T49 262Q49 403 115 466T292 530Q350 530 398 515T447 477Q447 463 433 440T408 416Q407 416 395 421Q372 431 349 438T293 445Q226 445 192 402T157 265Q157 167 189 123T298 78Q333 78
358 85T407 104Q419 108 420 108Q431 108 445 86T459 50Q459 27 407 10T297 -7Q171 -7 110 57Z" />
<glyph unicode="d" glyph-name="d" horiz-adv-x="565" d="M184 -7T141 26T73 121T49 261Q49 345 74 405T146 498T254 530Q294 530 325 518T386 484V728Q386 753 431 753H442Q488 753 488 728V156Q488 89 494 59T500 25Q500 11 475 5T429 -1Q414 -1 408 14T398
45T393 68Q327 -7 241 -7Q184 -7 141 26ZM297 80T328 97T386 146V406Q338 443 278 443Q217 443 186 398T155 267Q155 177 183 129T266 80Q297 80 328 97Z" />
<glyph unicode="e" glyph-name="e" horiz-adv-x="539" d="M51 -7T51 258Q51 393 112 461T287 530Q392 530 444 462T496 269Q496 259 482 241T458 223H159Q165 147 200 113T302 78Q340 78 368 87T417 106T441 117Q452 117 466 94T481 60Q481 44 455 29T386 3T301
-7Q51 -7 51 258ZM391 303Q391 372 365 408T285 445Q172 445 159 303H391Z" />
<glyph unicode="f" glyph-name="f" horiz-adv-x="325" d="M100 -2T100 23V438H66Q54 438 49 446T43 474V487Q43 506 48 514T66 523H100V612Q100 692 138 724T234 757Q314 757 314 722Q314 711 307 689T290 667Q285 667 275 669T251 672Q227 672 215 659T202 607V523H278Q290
523 295 515T301 487V474Q301 455 296 447T278 438H202V23Q202 -2 156 -2H145Q100 -2 100 23Z" />
<glyph unicode="g" glyph-name="g" horiz-adv-x="546" d="M43 -212T43 -79Q43 -38 67 -5T131 44L132 47Q92 74 92 127Q92 185 148 221Q107 241 85 278T63 362Q63 439 117 484T266 530Q295 530 330 523H506Q518 523 523 515T529 487V474Q529 455 524 447T507 439Q493
439 472 441T439 446L438 444Q467 412 467 362Q467 286 414 242T268 197Q224 197 204 185T184 144Q184 114 213 103T303 85L340 80Q415 69 457 39T499 -56Q499 -130 436 -171T256 -212Q43 -212 43 -79ZM312 277T341 297T370 363Q370 408 341 428T265 449Q218 449
190 429T161 363Q161 317 189 297T265 277Q312 277 341 297ZM335 -129T368 -112T401 -60Q401 -37 384 -25T341 -7T270 4Q217 11 197 15Q171 4 156 -15T140 -61Q140 -97 169 -113T267 -129Q335 -129 368 -112Z" />
<glyph unicode="h" glyph-name="h" horiz-adv-x="565" d="M85 -2T85 23V728Q85 753 130 753H141Q187 753 187 728V461Q216 491 254 510T337 530Q403 530 448 493T493 368V23Q493 -2 447 -2H437Q391 -2 391 23V356Q391 397 368 419T300 442Q271 442 246 429T206
399T187 376V23Q187 -2 141 -2H130Q85 -2 85 23Z" />
<glyph unicode="i" glyph-name="i" horiz-adv-x="265" d="M82 -2T82 23V500Q82 525 128 525H138Q184 525 184 500V23Q184 -2 138 -2H128Q82 -2 82 23ZM337 589T337 614V679Q337 704 390 704Q442 704 442 679V614Q442 589 390 589Q337 589 337 614Z" />
<glyph unicode="j" glyph-name="j" horiz-adv-x="276" d="M24 -212T2 -205T-21 -176Q-21 -162 -14 -142T4 -122Q8 -122 18 -124T43 -127Q66 -127 79 -113T92 -62V500Q92 525 138 525H149Q195 525 195 500V-67Q195 -144 155 -178T61 -212Q24 -212 2 -205ZM347 589T347
614V679Q347 704 400 704Q452 704 452 679V614Q452 589 400 589Q347 589 347 614Z" />
<glyph unicode="k" glyph-name="k" horiz-adv-x="521" d="M493 18T493 12Q493 5 482 2T445 -2H431Q410 -2 396 1T375 13L192 248L188 247V23Q188 -2 143 -2H132Q86 -2 86 23V728Q86 753 132 753H143Q188 753 188 728V295H192L363 510Q376 525 419 525H432Q452
525 462 521T473 511Q473 502 463 491L292 277L485 30Q493 18 493 12Z" />
<glyph unicode="l" glyph-name="l" horiz-adv-x="297" d="M155 -7T116 26T77 138V728Q77 753 122 753H133Q179 753 179 728V143Q179 107 192 93T228 78Q242 78 251 80T266 83Q276 83 283 62T290 29Q290 -7 210 -7Q155 -7 116 26Z" />
<glyph unicode="m" glyph-name="m" horiz-adv-x="848" d="M687 530T731 493T776 368V23Q776 -2 730 -2H719Q673 -2 673 23V356Q673 397 652 419T588 442Q551 442 523 421T478 375V366V23Q478 -2 432 -2H422Q376 -2 376 23V356Q376 397 355 419T290 442Q262 442
238 429T199 400T181 377V23Q181 -2 135 -2H124Q78 -2 78 23V364Q78 430 72 460T66 494Q66 508 91 514T137 520Q152 520 159 505T169 475T174 454Q200 486 239 508T324 530Q371 530 409 512T464 449Q493 484 535 507T622 530Q687 530 731 493Z" />
<glyph unicode="n" glyph-name="n" horiz-adv-x="557" d="M79 -2T79 23V364Q79 430 73 460T67 494Q67 508 92 514T138 520Q153 520 159 506T169 476T174 454Q204 489 245 509T328 530Q404 530 445 488T487 368V23Q487 -2 441 -2H430Q384 -2 384 23V356Q384 397
361 419T294 442Q262 442 232 424T182 376V23Q182 -2 136 -2H125Q79 -2 79 23Z" />
<glyph unicode="o" glyph-name="o" horiz-adv-x="569" d="M171 -7T111 61T51 260Q51 390 112 460T286 530Q399 530 458 461T518 260Q518 130 459 62T286 -7Q171 -7 111 61ZM350 78T381 123T413 261Q413 354 382 399T284 445Q219 445 188 400T157 261Q157 168 187
123T284 78Q350 78 381 123Z" />
<glyph unicode="p" glyph-name="p" horiz-adv-x="573" d="M81 -207T81 -183V364Q81 430 75 460T69 494Q69 508 94 514T140 520Q155 520 162 506T172 476T177 455Q208 491 246 510T328 530Q387 530 430 497T497 402T520 261Q520 135 465 64T315 -7Q275 -7 244 5T184
39V-183Q184 -207 138 -207H127Q81 -207 81 -183ZM353 80T383 125T414 256Q414 346 386 394T304 443Q272 443 241 426T184 377V117Q230 80 292 80Q353 80 383 125Z" />
<glyph unicode="q" glyph-name="q" horiz-adv-x="566" d="M387 -207T387 -183V39Q358 17 327 5T256 -7Q161 -7 105 64T49 260Q49 340 73 401T141 496T243 530Q286 530 324 511T394 455Q402 491 409 509Q412 518 420 521T445 525H451Q490 525 490 500V-183Q490
-207 444 -207H433Q387 -207 387 -183ZM341 80T387 117V377Q361 408 330 425T267 443Q212 443 184 395T155 256Q155 170 186 125T279 80Q341 80 387 117Z" />
<glyph unicode="r" glyph-name="r" horiz-adv-x="366" d="M82 -2T82 23V364Q82 430 76 460T70 494Q70 508 95 514T141 520Q156 520 162 506T172 476T177 454Q228 530 291 530Q322 530 335 519T349 486Q349 468 342 446T326 424Q320 424 306 429T273 434Q242 434
219 414T184 376V23Q184 -2 139 -2H128Q82 -2 82 23Z" />
<glyph unicode="s" glyph-name="s" horiz-adv-x="413" d="M155 -9T118 1T59 26T36 56Q36 69 50 91T76 114Q78 114 96 104T137 85T189 77Q232 77 254 93T276 142Q276 173 254 190T182 224Q141 239 114 255T67 301T48 380Q48 447 95 488T218 530Q270 530 313 517T356
483Q356 468 344 445T320 422Q316 423 293 434T230 446Q195 446 173 431T151 388Q151 361 168 346T231 316Q301 292 340 256T379 152Q379 106 356 69T291 12T197 -9Q155 -9 118 1Z" />
<glyph unicode="t" glyph-name="t" horiz-adv-x="342" d="M177 -7T138 26T98 138V438H58Q46 438 41 446T35 474V487Q35 506 40 514T58 523H98L111 625Q114 650 149 650H165Q201 650 201 625V523H275Q287 523 292 515T298 487V474Q298 455 293 447T275 438H201V143Q201
107 213 93T250 78Q264 78 273 80T288 83Q298 83 305 62T312 29Q312 -7 232 -7Q177 -7 138 26Z" />
<glyph unicode="u" glyph-name="u" horiz-adv-x="557" d="M153 -7T112 35T70 155V500Q70 525 116 525H127Q173 525 173 500V167Q173 126 196 104T263 81Q295 81 325 99T375 147V500Q375 525 421 525H432Q478 525 478 500V156Q478 89 484 59T490 25Q490 11 465
5T419 -1Q404 -1 398 14T388 46T383 69Q354 34 313 14T229 -7Q153 -7 112 35Z" />
<glyph unicode="v" glyph-name="v" horiz-adv-x="485" d="M188 -2T181 15L21 492Q17 500 17 507Q17 525 65 525H79Q118 525 123 508L210 235Q232 166 244 100H248Q262 174 286 246L369 508Q376 525 415 525H424Q468 525 468 507Q468 502 465 491L304 15Q299 -2
260 -2H226Q188 -2 181 15Z" />
<glyph unicode="w" glyph-name="w" horiz-adv-x="747" d="M166 -2T162 15L31 487Q27 499 27 505Q27 525 78 525Q125 525 129 508L206 209Q211 189 227 103H231Q243 172 252 210L328 507Q334 525 372 525H384Q423 525 427 507L504 209Q519 153 526 101H528L532
125Q542 182 549 208L626 508Q630 525 672 525Q718 525 718 505Q718 497 716 491L586 15Q584 6 572 2T542 -2H506Q467 -2 463 15L390 304Q383 333 376 385H373Q364 325 359 305L286 15Q282 -2 241 -2H206Q166 -2 162 15Z" />
<glyph unicode="x" glyph-name="x" horiz-adv-x="485" d="M16 -2T16 15Q16 23 25 35L183 267L36 487Q27 501 27 508Q27 525 78 525H93Q113 525 124 522T142 509L227 379L246 347Q250 352 254 360T266 379L352 510Q358 519 370 522T402 525H413Q461 525 461 508Q461
500 452 488L303 269L460 36Q469 23 469 15Q469 -2 418 -2H403Q383 -2 372 1T355 14L259 159L241 190Q231 173 222 159L125 13Q119 4 107 1T75 -2H64Q16 -2 16 15Z" />
<glyph unicode="y" glyph-name="y" horiz-adv-x="481" d="M466 525T466 507Q466 502 463 491L214 -186Q207 -207 165 -207H149Q108 -207 108 -190Q108 -187 113 -173L191 21L19 492Q16 504 16 507Q16 525 64 525H79Q118 525 123 508L213 261Q226 227 244 155H246L254
182Q268 231 278 261L366 508Q371 525 412 525H421Q466 525 466 507Z" />
<glyph unicode="z" glyph-name="z" horiz-adv-x="489" d="M51 0T43 21T34 58Q34 66 37 70L312 438H76Q64 438 59 446T53 474V487Q53 506 58 514T76 523H428Q435 523 442 502T450 464Q450 458 448 452L174 85H429Q441 85 446 77T452 49V36Q452 17 447 9T429 0H58Q51
0 43 21Z" />
<glyph unicode="{" glyph-name="braceleft" horiz-adv-x="274" d="M147 -138T121 -110T95 -22V145Q95 199 85 228T46 270Q32 276 26 285T19 308V322Q19 336 25 345T46 360Q75 373 85 402T95 485V652Q95 711 121 739T179 768H226Q238 768 243 761T249 736V729Q249
712 244 705T227 697H212Q193 697 187 684T180 643V469Q180 409 156 370T105 314Q131 301 155 262T180 161V-12Q180 -40 186 -53T211 -67H227Q238 -67 243 -74T249 -99V-106Q249 -123 244 -130T226 -138H179Q147 -138 121 -110Z" />
<glyph unicode="|" glyph-name="bar" horiz-adv-x="250" d="M88 -139T88 -115V745Q88 769 119 769H131Q162 769 162 745V-115Q162 -139 131 -139H119Q88 -139 88 -115Z" />
<glyph unicode="}" glyph-name="braceright" horiz-adv-x="274" d="M38 -138T33 -131T27 -106V-99Q27 -82 32 -75T49 -67H65Q83 -67 89 -54T96 -12V161Q96 223 120 262T171 314Q144 332 120 370T96 469V643Q96 671 90 684T64 697H48Q37 697 32 704T27 729V736Q27
753 32 760T50 768H97Q129 768 155 740T181 652V485Q181 431 191 402T230 360Q244 354 250 345T257 322V308Q257 294 251 285T230 270Q201 257 191 228T181 145V-22Q181 -82 155 -110T97 -138H50Q38 -138 33 -131Z" />
<glyph unicode="~" glyph-name="asciitilde" horiz-adv-x="560" d="M96 212T86 217T76 230Q76 242 82 255Q94 283 118 301T181 320Q207 320 231 315T292 299Q315 292 339 287T381 281Q404 281 416 289T439 310T454 323Q461 323 472 317T484 303Q484 298 479 283Q451
214 374 214Q350 214 326 219T265 237Q242 244 220 249T181 255Q158 255 145 247T120 225T104 212Q96 212 86 217Z" />
<glyph unicode="&#xa0;" glyph-name="uni00A0" horiz-adv-x="240" />
<glyph unicode="&#xa1;" glyph-name="exclamdown" horiz-adv-x="294" d="M91 402T91 427V500Q91 525 137 525H158Q204 525 204 500V427Q204 402 158 402H137Q91 402 91 427ZM72 -179T72 -156Q72 -138 83 11T106 290Q108 303 116 309T143 315H154Q174 315 182 309T190
290V-154Q190 -179 144 -179H118Q72 -179 72 -156Z" />
<glyph unicode="&#xa2;" glyph-name="cent" horiz-adv-x="470" d="M446 30T408 15T317 -5V-54Q317 -74 291 -74H286Q260 -74 260 -54V-6Q147 -1 92 64T36 262Q36 397 97 461T260 530V568Q260 588 286 588H291Q317 588 317 568V528Q365 523 399 509T433 477Q433
463 419 440T395 416Q394 416 382 421Q348 437 317 442V80Q356 85 393 104L406 108Q418 108 432 86T446 50Q446 30 408 15ZM144 175T171 131T260 79V444Q144 433 144 265Q144 175 171 131Z" />
<glyph unicode="&#xa3;" glyph-name="sterling" horiz-adv-x="530" d="M67 0T61 8T55 33V50Q55 62 62 69T86 86Q111 100 124 116T138 164V331H89Q77 331 72 339T67 367V380Q67 399 72 407T89 416H138V499Q138 707 350 707Q389 707 421 700T454 671Q454 658 446
636T427 614Q422 614 404 618T363 623Q299 623 270 595T240 504V416H375Q387 416 392 408T398 380V367Q398 348 393 340T375 331H240V250Q240 172 225 137T187 85H451Q463 85 468 77T474 49V36Q474 17 469 9T451 0H81Q67 0 61 8Z" />
<glyph unicode="&#xa4;" glyph-name="currency" horiz-adv-x="550" d="M116 123T105 132L95 142Q86 151 86 162Q86 172 97 185L121 208Q89 252 89 312Q89 371 121 418L96 442Q84 454 84 466Q84 475 91 482L105 496Q116 505 124 505Q134 505 146 493L172 468Q220
500 275 500Q333 500 379 468L405 493Q414 504 426 504Q437 504 447 494L457 484Q467 474 467 465Q467 454 455 442L430 416Q463 370 463 312Q463 255 431 209L455 185Q466 172 466 162Q466 158 463 153T455 142L446 132Q435 123 426 123Q415 123 404 134L380 158Q334
126 275 126Q218 126 171 157L147 133Q137 123 125 123Q116 123 105 132ZM322 202T354 234T387 312Q387 359 355 391T275 424Q229 424 197 392T165 312Q165 266 197 234T275 202Q322 202 354 234Z" />
<glyph unicode="&#xa5;" glyph-name="yen" horiz-adv-x="600" d="M569 677T561 664L399 417H512Q524 417 529 410T534 387V378Q534 362 529 355T512 348H354V262H512Q524 262 529 255T534 232V223Q534 207 529 200T512 193H354V23Q354 -2 308 -2H293Q247 -2 247
23V193H90Q78 193 73 200T67 223V232Q67 248 72 255T90 262H247V348H90Q78 348 73 355T67 378V387Q67 403 72 410T90 417H204L41 664Q32 676 32 684Q32 702 83 702H104Q123 702 134 699T151 686L303 449L458 687Q468 702 508 702H523Q569 701 569 684Q569 677 561
664Z" />
<glyph unicode="&#xa6;" glyph-name="brokenbar" horiz-adv-x="250" d="M88 396T88 421V745Q88 770 119 770H131Q162 770 162 745V421Q162 396 131 396H119Q88 396 88 421ZM88 -140T88 -115V208Q88 233 119 233H131Q162 233 162 208V-115Q162 -140 131 -140H119Q88
-140 88 -115Z" />
<glyph unicode="&#xa7;" glyph-name="section" horiz-adv-x="429" d="M156 -6T113 7T70 42Q70 55 82 78T105 102Q107 102 131 90T194 78Q231 78 249 92T268 130Q268 156 249 168T187 196Q179 198 163 204Q110 224 79 257T48 356Q48 391 61 420T96 470Q58 505 58
561Q58 632 105 669T225 707Q274 707 317 694T361 659Q361 645 349 622T326 599Q324 599 299 610T236 622Q200 622 182 608T163 570Q163 544 182 531T228 510T264 498Q319 478 350 446T382 345Q382 275 333 231Q372 197 372 141Q372 69 325 32T206 -6Q156 -6 113
7ZM284 289T284 341Q284 377 260 395T188 428Q146 409 146 361Q146 323 170 306T242 274Q284 289 284 341Z" />
<glyph unicode="&#xa8;" glyph-name="dieresis" horiz-adv-x="258" d="M23 592T12 598T0 617V676Q0 689 11 694T49 700Q75 700 86 695T98 676V617Q98 604 87 598T49 592Q23 592 12 598ZM159 592T159 617V676Q159 689 170 694T208 700Q234 700 246 695T258 676V617Q258
604 246 598T208 592Q159 592 159 617Z" />
<glyph unicode="&#xa9;" glyph-name="copyright" horiz-adv-x="739" d="M272 -6T190 42T59 172T11 353Q11 451 59 532T189 661T369 709Q467 709 549 662T680 533T729 353Q729 255 681 173T550 42T369 -6Q272 -6 190 42ZM452 47T522 88T634 199T676 353Q676 436
635 506T523 616T369 657Q286 657 216 617T105 506T63 353Q63 270 104 200T216 88T369 47Q452 47 522 88ZM288 141T242 192T195 350Q195 559 386 559Q429 559 465 548T501 522Q501 512 492 497T476 481Q475 481 452 493T387 506Q322 506 291 468T259 350Q259 271
290 233T384 194Q413 194 433 200T468 214T484 222Q491 222 499 207T508 185Q508 169 470 155T384 141Q288 141 242 192Z" />
<glyph unicode="&#xaa;" glyph-name="ordfeminine" horiz-adv-x="319" d="M87 441T66 460T44 515Q44 565 84 584T199 605V625Q199 641 188 649T152 657Q122 657 103 650T79 641Q74 641 67 654T59 674Q59 685 88 696T155 707Q203 707 229 686T256 627V521Q256 487
259 472T262 455Q262 449 248 446T224 442Q214 442 211 450T203 476Q191 462 171 452T123 441Q87 441 66 460ZM154 493T170 501T199 522V560Q154 560 128 553T101 521Q101 493 136 493Q154 493 170 501Z" />
<glyph unicode="&#xab;" glyph-name="guillemotleft" horiz-adv-x="470" d="M189 57T176 70L47 225Q33 242 33 258Q33 274 47 291L176 446Q188 458 200 458Q212 458 227 446T242 421Q242 412 233 401L123 258L233 114Q242 104 242 94Q242 83 228 70T200 57Q189
57 176 70ZM369 57T356 70L227 225Q213 242 213 258Q213 274 227 291L356 446Q368 458 380 458Q392 458 407 446T422 421Q422 412 413 401L303 258L413 114Q422 104 422 94Q422 83 408 70T380 57Q369 57 356 70Z" />
<glyph unicode="&#xac;" glyph-name="logicalnot" horiz-adv-x="560" d="M436 76T436 100V258H60Q48 258 43 266T37 294V305Q37 324 42 332T60 341H490Q507 341 515 333T523 308V100Q523 76 487 76H472Q436 76 436 100Z" />
<glyph unicode="&#xad;" glyph-name="uni00AD" horiz-adv-x="320" d="M51 225T46 233T40 261V270Q40 289 45 297T63 305H257Q269 305 274 297T280 270V261Q280 242 275 234T257 225H63Q51 225 46 233Z" />
<glyph unicode="&#xae;" glyph-name="registered" horiz-adv-x="739" d="M272 -6T190 42T59 172T11 353Q11 451 59 532T189 661T369 709Q467 709 549 662T680 533T729 353Q729 255 681 173T550 42T369 -6Q272 -6 190 42ZM452 47T522 88T634 199T676 353Q676 436
635 506T523 616T369 657Q286 657 216 617T105 506T63 353Q63 270 104 200T216 88T369 47Q452 47 522 88ZM247 148T247 163V537Q247 556 266 556H368Q439 556 474 531T509 452Q509 416 491 392T442 355V352Q458 346 469 330T492 285L538 167Q541 161 541 158Q541
148 513 148H503Q480 148 477 158L432 272Q420 301 403 312T353 323H309V163Q309 148 282 148H274Q247 148 247 163ZM380 376Q407 376 426 395T446 441Q446 472 428 487T376 503H309V376H380Z" />
<glyph unicode="&#xaf;" glyph-name="overscore" horiz-adv-x="268" d="M11 608T6 616T0 641V652Q0 669 5 677T23 685H245Q257 685 262 677T268 652V641Q268 624 263 616T245 608H23Q11 608 6 616Z" />
<glyph unicode="&#xb0;" glyph-name="degree" horiz-adv-x="345" d="M136 442T106 459T58 507T40 574Q40 610 58 640T106 689T172 707Q208 707 238 689T287 641T305 574Q305 538 287 508T239 460T172 442Q136 442 106 459ZM204 491T227 515T251 574Q251 608 228
632T172 657Q140 657 117 633T94 574Q94 540 117 516T172 491Q204 491 227 515Z" />
<glyph unicode="&#xb1;" glyph-name="plusminus" horiz-adv-x="560" d="M257 136T249 141T240 159V323H70Q58 323 53 331T47 358V365Q47 384 52 392T70 401H240V573Q240 585 248 590T276 596H285Q304 596 312 591T320 573V401H490Q502 401 507 393T513 365V358Q513
339 508 331T490 323H320V159Q320 147 312 142T285 136H276Q257 136 249 141ZM57 1T52 9T47 34V46Q47 63 52 71T69 79H491Q503 79 508 71T513 46V34Q513 17 508 9T491 1H69Q57 1 52 9Z" />
<glyph unicode="&#xb2;" glyph-name="uni00B2" horiz-adv-x="310" d="M30 350T27 360T23 380Q23 391 29 398L175 580Q197 608 203 622T209 656Q209 683 191 698T142 713Q120 713 104 707T75 694T59 686Q53 686 45 697T37 717Q37 736 73 749T145 763Q203 763 236
735T270 659Q270 625 260 605T223 550L103 399H262Q275 399 275 378V371Q275 350 262 350H36Q30 350 27 360Z" />
<glyph unicode="&#xb3;" glyph-name="uni00B3" horiz-adv-x="310" d="M97 344T61 355T24 382Q24 391 32 403T47 416Q50 416 76 405T137 394Q168 394 191 412T214 468Q214 507 193 523T132 540H113Q100 540 100 561V569Q100 590 113 590H128Q165 590 183 611T201
659Q201 681 187 697T138 713Q103 713 82 704T58 694Q52 694 44 707T36 728Q36 743 72 753T143 763Q198 763 230 736T262 659Q262 630 246 609T203 577V574Q234 565 255 537T276 467Q276 406 237 375T144 344Q97 344 61 355Z" />
<glyph unicode="&#xb4;" glyph-name="acute" horiz-adv-x="170" d="M0 575T0 588Q0 594 5 603T12 616L52 691Q60 706 73 712T120 718Q146 718 158 715T170 702Q170 695 165 686T145 661L90 601Q76 585 63 580T27 575Q0 575 0 588Z" />
<glyph unicode="&#xb5;" glyph-name="uni00B5" horiz-adv-x="566" d="M487 89T493 59T499 25Q499 11 474 5T428 -1Q413 -1 407 14T397 46T392 69Q362 34 322 14T240 -7Q202 -7 168 9Q176 -35 179 -77T182 -183Q182 -207 136 -207H125Q79 -207 79 -183V500Q79 525
125 525H136Q182 525 182 500V167Q182 126 205 104T272 81Q303 81 333 99T384 147V500Q384 525 430 525H441Q487 525 487 500V156Q487 89 493 59Z" />
<glyph unicode="&#xb6;" glyph-name="paragraph" horiz-adv-x="515" d="M243 -172T243 -148V247Q187 253 141 285T68 366T41 473Q41 536 71 588T154 670T268 700H478Q501 700 501 674V663Q501 638 478 638H445V-148Q445 -160 439 -166T419 -172H409Q383 -172 383
-148V638H305V-148Q305 -160 299 -166T279 -172H269Q243 -172 243 -148Z" />
<glyph unicode="&#xb7;" glyph-name="middot" horiz-adv-x="267" d="M109 303T93 319T77 360Q77 384 93 400T133 417Q157 417 173 401T190 360Q190 336 174 320T133 303Q109 303 93 319Z" />
<glyph unicode="&#xb8;" glyph-name="cedilla" horiz-adv-x="236" d="M190 -55T213 -74T236 -124Q236 -172 203 -191T120 -211Q79 -211 40 -198T0 -166Q0 -153 6 -145T22 -136Q26 -136 46 -142Q66 -149 81 -152T117 -156Q136 -156 150 -149T165 -125Q165 -110
154 -104T122 -93Q106 -89 100 -86T93 -76Q93 -66 114 3H163L148 -52Q190 -55 213 -74Z" />
<glyph unicode="&#xb9;" glyph-name="uni00B9" horiz-adv-x="310" d="M153 348T146 352T139 364V702L64 687Q57 687 54 698T50 723Q50 732 61 735L179 763Q186 763 192 759T198 750V364Q198 356 191 352T173 348H164Q153 348 146 352Z" />
<glyph unicode="&#xba;" glyph-name="ordmasculine" horiz-adv-x="337" d="M113 441T83 475T53 573Q53 638 83 672T170 707Q226 707 255 673T284 573Q284 509 255 475T170 441Q113 441 83 475ZM225 490T225 574Q225 616 211 636T168 657Q112 657 112 574Q112 490
168 490Q225 490 225 574Z" />
<glyph unicode="&#xbb;" glyph-name="guillemotright" horiz-adv-x="470" d="M77 57T63 70T48 94Q48 104 57 114L167 258L57 401Q48 412 48 421Q48 434 63 446T90 458Q103 458 114 446L243 291Q257 274 257 258Q257 242 243 225L114 70Q103 57 90 57Q77 57 63
70ZM257 57T243 70T228 94Q228 104 237 114L347 258L237 401Q228 412 228 421Q228 434 243 446T270 458Q282 458 294 446L423 291Q437 274 437 258Q437 242 423 225L294 70Q281 57 270 57Q257 57 243 70Z" />
<glyph unicode="&#xbc;" glyph-name="onequarter" horiz-adv-x="750" d="M388 288T381 292T374 304V642L299 627Q292 627 289 638T285 663Q285 672 296 675L414 703Q421 703 427 699T433 690V304Q433 296 426 292T408 288H399Q388 288 381 292ZM608 -2T608 12V92H442Q435
92 429 104T423 127Q423 132 426 136L610 400Q618 409 633 409H645Q667 409 667 394V141H701Q714 141 714 120V112Q714 92 701 92H667V12Q667 -2 645 -2H631Q608 -2 608 12ZM609 141V275Q609 303 614 322L612 323L486 141H609ZM128 -1T128 7Q128 11 133 19L526
684Q532 694 539 698T558 702H572Q590 702 590 694Q590 691 586 683L192 18Q186 8 179 4T159 -1H144Q128 -1 128 7Z" />
<glyph unicode="&#xbd;" glyph-name="onehalf" horiz-adv-x="750" d="M388 288T381 292T374 304V642L299 627Q292 627 289 638T285 663Q285 672 296 675L414 703Q421 703 427 699T433 690V304Q433 296 426 292T408 288H399Q388 288 381 292ZM448 0T445 10T441
30Q441 41 447 48L593 230Q615 258 621 272T627 306Q627 333 609 348T560 363Q538 363 522 357T493 344T477 336Q471 336 463 347T455 367Q455 386 491 399T563 413Q621 413 654 385T688 309Q688 275 678 255T641 200L521 49H680Q693 49 693 28V21Q693 0 680 0H454Q448
0 445 10ZM104 -1T104 7Q104 11 109 19L502 684Q508 694 515 698T534 702H548Q566 702 566 694Q566 691 562 683L168 18Q162 8 155 4T135 -1H120Q104 -1 104 7Z" />
<glyph unicode="&#xbe;" glyph-name="threequarters" horiz-adv-x="750" d="M343 284T307 295T270 322Q270 331 278 343T293 356Q296 356 322 345T383 334Q414 334 437 352T460 408Q460 447 439 463T378 480H359Q346 480 346 501V509Q346 530 359 530H374Q411
530 429 551T447 599Q447 621 433 637T384 653Q349 653 328 644T304 634Q298 634 290 647T282 668Q282 683 318 693T389 703Q444 703 476 676T508 599Q508 570 492 549T449 517V514Q480 505 501 477T522 407Q522 346 483 315T390 284Q343 284 307 295ZM608 -2T608
12V92H442Q435 92 429 104T423 127Q423 132 426 136L610 400Q618 409 633 409H645Q667 409 667 394V141H701Q714 141 714 120V112Q714 92 701 92H667V12Q667 -2 645 -2H631Q608 -2 608 12ZM609 141V275Q609 303 614 322L612 323L486 141H609ZM157 -1T157 7Q157
11 162 19L555 684Q561 694 568 698T587 702H601Q619 702 619 694Q619 691 615 683L221 18Q215 8 208 4T188 -1H173Q157 -1 157 7Z" />
<glyph unicode="&#xbf;" glyph-name="questiondown" horiz-adv-x="425" d="M328 525T328 500V427Q328 402 282 402H261Q215 402 215 427V500Q215 525 261 525H282Q328 525 328 500ZM314 315T314 291Q314 255 293 215T233 135Q227 128 198 98T155 43T141 -3Q141
-93 252 -93Q279 -93 302 -86T349 -68Q367 -60 372 -60Q383 -60 398 -83T413 -120Q413 -149 357 -166T237 -184Q172 -184 125 -162T53 -100T28 -13Q28 36 52 73T123 155Q172 203 194 230T223 293Q225 305 233 310T261 315H279Q314 315 314 291Z" />
<glyph unicode="&#xc0;" glyph-name="Agrave" horiz-adv-x="613" d="M9 -2T9 16Q9 22 12 32L244 685Q250 702 289 702H324Q363 702 369 685L601 31Q604 22 604 16Q604 -2 559 -2H541Q503 -2 496 15L443 167H166L114 15Q107 -2 72 -2H57Q9 -2 9 16ZM411 259L320
523Q316 537 313 556T307 583H305Q297 541 290 523L198 259H411ZM339 751T325 755T291 772L228 811Q206 825 199 833T191 849Q191 867 249 867Q282 867 298 862T328 842L382 784Q394 772 394 764Q394 758 386 755T364 751Q339 751 325 755Z" />
<glyph unicode="&#xc1;" glyph-name="Aacute" horiz-adv-x="613" d="M9 -2T9 16Q9 22 12 32L244 685Q250 702 289 702H324Q363 702 369 685L601 31Q604 22 604 16Q604 -2 559 -2H541Q503 -2 496 15L443 167H166L114 15Q107 -2 72 -2H57Q9 -2 9 16ZM411 259L320
523Q316 537 313 556T307 583H305Q297 541 290 523L198 259H411ZM235 751T227 754T219 764Q219 772 231 784L285 842Q298 857 314 862T363 867Q422 867 422 849Q422 841 415 833T385 811L321 772Q301 759 287 755T248 751Q235 751 227 754Z" />
<glyph unicode="&#xc2;" glyph-name="Acircumflex" horiz-adv-x="613" d="M9 -2T9 16Q9 22 12 32L244 685Q250 702 289 702H324Q363 702 369 685L601 31Q604 22 604 16Q604 -2 559 -2H541Q503 -2 496 15L443 167H166L114 15Q107 -2 72 -2H57Q9 -2 9 16ZM411 259L320
523Q316 537 313 556T307 583H305Q297 541 290 523L198 259H411ZM172 740T172 750Q172 754 175 759T188 776L241 833Q253 846 264 851T297 856H317Q340 856 349 852T373 833L424 778Q436 765 439 760T442 750Q442 740 415 740Q391 740 369 754L307 793L247 755Q223
740 199 740Q172 740 172 750Z" />
<glyph unicode="&#xc3;" glyph-name="Atilde" horiz-adv-x="613" d="M9 -2T9 16Q9 22 12 32L244 685Q250 702 289 702H324Q363 702 369 685L601 31Q604 22 604 16Q604 -2 559 -2H541Q503 -2 496 15L443 167H166L114 15Q107 -2 72 -2H57Q9 -2 9 16ZM411 259L320
523Q316 537 313 556T307 583H305Q297 541 290 523L198 259H411ZM151 754T139 761T126 777Q126 782 130 794Q144 826 170 845T230 864Q262 864 318 842Q336 835 353 830T384 825Q400 825 411 832T434 851Q447 864 454 864Q464 864 476 856T488 839Q488 832 483
823Q467 791 442 773T384 755Q350 755 294 777Q247 794 227 794Q211 794 201 787T180 768Q168 754 160 754Q151 754 139 761Z" />
<glyph unicode="&#xc4;" glyph-name="Adieresis" horiz-adv-x="613" d="M9 -2T9 16Q9 22 12 32L244 685Q250 702 289 702H324Q363 702 369 685L601 31Q604 22 604 16Q604 -2 559 -2H541Q503 -2 496 15L443 167H166L114 15Q107 -2 72 -2H57Q9 -2 9 16ZM411 259L320
523Q316 537 313 556T307 583H305Q297 541 290 523L198 259H411ZM198 755T186 760T174 779V839Q174 852 186 858T224 864Q250 864 262 858T274 839V779Q274 766 262 761T224 755Q198 755 186 760ZM365 755T354 760T342 779V839Q342 852 353 858T391 864Q417 864
429 858T441 839V779Q441 766 429 761T391 755Q365 755 354 760Z" />
<glyph unicode="&#xc5;" glyph-name="Aring" horiz-adv-x="613" d="M9 -2T9 16Q9 22 12 32L244 685Q250 702 289 702H324Q363 702 369 685L601 31Q604 22 604 16Q604 -2 559 -2H541Q503 -2 496 15L443 167H166L114 15Q107 -2 72 -2H57Q9 -2 9 16ZM411 259L320
523Q316 537 313 556T307 583H305Q297 541 290 523L198 259H411ZM267 739T242 764T217 827Q217 865 242 890T305 916Q343 916 369 891T395 827Q395 790 369 765T305 739Q267 739 242 764ZM321 789T332 800T344 827Q344 843 333 854T305 865Q289 865 279 854T268
827Q268 811 278 800T305 789Q321 789 332 800Z" />
<glyph unicode="&#xc6;" glyph-name="AE" horiz-adv-x="915" d="M-6 -2T-6 16Q-6 25 -2 33L319 673Q326 687 336 693T362 700H813Q825 700 830 692T836 664V644Q836 625 831 617T813 608H464L507 404H784Q796 404 801 396T806 368V348Q806 329 801 321T784 312H526L573
92H814Q826 92 831 84T837 56V36Q837 17 832 9T814 0H514Q484 0 478 29L449 167H169L95 15Q87 -2 53 -2H39Q-6 -2 -6 16ZM430 259L375 524L373 589H370L347 524L216 259H430Z" />
<glyph unicode="&#xc7;" glyph-name="Ccedilla" horiz-adv-x="619" d="M556 132T565 120T582 92T589 69Q589 49 556 32Q526 15 477 4T378 -7H374L362 -52Q404 -55 427 -74T450 -124Q450 -172 417 -191T334 -211Q293 -211 254 -198T214 -166Q214 -154 220 -145T236
-136Q239 -136 261 -142Q301 -156 331 -156Q351 -156 365 -149T380 -125Q380 -110 369 -104T337 -93Q321 -89 315 -86T308 -76Q308 -67 326 -5Q187 9 121 95T54 351Q54 707 380 707Q429 707 476 697T552 670Q577 655 577 642Q577 626 562 600T534 574Q531 574 509
585T455 605T381 614Q270 614 217 551T164 350Q164 215 216 150T378 85Q426 85 461 96T528 124Q542 132 547 132Q556 132 565 120Z" />
<glyph unicode="&#xc8;" glyph-name="Egrave" horiz-adv-x="546" d="M108 0T100 8T92 33V667Q92 684 100 692T125 700H474Q486 700 491 692T497 664V644Q497 625 492 617T474 608H199V404H445Q457 404 462 396T468 368V348Q468 329 463 321T445 312H199V92H475Q487
92 492 84T498 56V36Q498 17 493 9T475 0H125Q108 0 100 8ZM326 751T312 755T278 772L215 811Q193 825 186 833T178 849Q178 867 236 867Q269 867 285 862T315 842L369 784Q381 772 381 764Q381 758 373 755T351 751Q326 751 312 755Z" />
<glyph unicode="&#xc9;" glyph-name="Eacute" horiz-adv-x="546" d="M108 0T100 8T92 33V667Q92 684 100 692T125 700H474Q486 700 491 692T497 664V644Q497 625 492 617T474 608H199V404H445Q457 404 462 396T468 368V348Q468 329 463 321T445 312H199V92H475Q487
92 492 84T498 56V36Q498 17 493 9T475 0H125Q108 0 100 8ZM222 751T214 754T206 764Q206 772 218 784L272 842Q285 857 301 862T350 867Q409 867 409 849Q409 841 402 833T372 811L308 772Q288 759 274 755T235 751Q222 751 214 754Z" />
<glyph unicode="&#xca;" glyph-name="Ecircumflex" horiz-adv-x="546" d="M108 0T100 8T92 33V667Q92 684 100 692T125 700H474Q486 700 491 692T497 664V644Q497 625 492 617T474 608H199V404H445Q457 404 462 396T468 368V348Q468 329 463 321T445 312H199V92H475Q487
92 492 84T498 56V36Q498 17 493 9T475 0H125Q108 0 100 8ZM158 740T158 750Q158 754 161 759T174 776L227 833Q239 846 250 851T283 856H303Q326 856 335 852T359 833L410 778Q422 765 425 760T428 750Q428 740 401 740Q377 740 355 754L293 793L233 755Q209 740
185 740Q158 740 158 750Z" />
<glyph unicode="&#xcb;" glyph-name="Edieresis" horiz-adv-x="546" d="M108 0T100 8T92 33V667Q92 684 100 692T125 700H474Q486 700 491 692T497 664V644Q497 625 492 617T474 608H199V404H445Q457 404 462 396T468 368V348Q468 329 463 321T445 312H199V92H475Q487
92 492 84T498 56V36Q498 17 493 9T475 0H125Q108 0 100 8ZM184 755T172 760T160 779V839Q160 852 172 858T210 864Q236 864 248 858T260 839V779Q260 766 248 761T210 755Q184 755 172 760ZM351 755T340 760T328 779V839Q328 852 339 858T377 864Q403 864 415
858T427 839V779Q427 766 415 761T377 755Q351 755 340 760Z" />
<glyph unicode="&#xcc;" glyph-name="Igrave" horiz-adv-x="283" d="M87 -2T87 23V677Q87 702 133 702H149Q195 702 195 677V23Q195 -2 149 -2H133Q87 -2 87 23ZM174 751T160 755T126 772L63 811Q41 825 34 833T26 849Q26 867 84 867Q117 867 133 862T163 842L217
784Q229 772 229 764Q229 758 221 755T199 751Q174 751 160 755Z" />
<glyph unicode="&#xcd;" glyph-name="Iacute" horiz-adv-x="283" d="M87 -2T87 23V677Q87 702 133 702H149Q195 702 195 677V23Q195 -2 149 -2H133Q87 -2 87 23ZM69 751T61 754T53 764Q53 772 65 784L119 842Q132 857 148 862T197 867Q256 867 256 849Q256 841
249 833T219 811L155 772Q135 759 121 755T82 751Q69 751 61 754Z" />
<glyph unicode="&#xce;" glyph-name="Icircumflex" horiz-adv-x="283" d="M87 -2T87 23V677Q87 702 133 702H149Q195 702 195 677V23Q195 -2 149 -2H133Q87 -2 87 23ZM6 740T6 750Q6 754 9 759T22 776L75 833Q87 846 98 851T131 856H151Q174 856 183 852T207 833L258
778Q270 765 273 760T276 750Q276 740 249 740Q225 740 203 754L141 793L81 755Q57 740 33 740Q6 740 6 750Z" />
<glyph unicode="&#xcf;" glyph-name="Idieresis" horiz-adv-x="283" d="M87 -2T87 23V677Q87 702 133 702H149Q195 702 195 677V23Q195 -2 149 -2H133Q87 -2 87 23ZM32 755T20 760T8 779V839Q8 852 20 858T58 864Q84 864 96 858T108 839V779Q108 766 96 761T58
755Q32 755 20 760ZM199 755T188 760T176 779V839Q176 852 187 858T225 864Q251 864 263 858T275 839V779Q275 766 263 761T225 755Q199 755 188 760Z" />
<glyph unicode="&#xd0;" glyph-name="Eth" horiz-adv-x="695" d="M473 700T557 615T641 350Q641 171 557 86T329 0H124Q107 0 99 8T91 33V312H26Q14 312 9 320T3 347V367Q3 386 8 394T26 403H91V667Q91 684 99 692T124 700H329Q473 700 557 615ZM419 92T475 155T531
350Q531 481 475 544T324 608H198V403H324Q336 403 341 395T346 367V347Q346 328 341 320T324 312H198V92H324Q419 92 475 155Z" />
<glyph unicode="&#xd1;" glyph-name="Ntilde" horiz-adv-x="719" d="M84 -2T84 23V677Q84 702 130 702H157Q175 702 186 698T206 681L494 243Q512 217 528 184L532 185Q530 208 530 253V677Q530 702 576 702H589Q635 702 635 677V23Q635 -2 589 -2H564Q547 -2
537 2T520 16L225 463Q208 487 191 523L187 522Q189 499 189 454V23Q189 -2 143 -2H130Q84 -2 84 23ZM204 754T192 761T179 777Q179 782 183 794Q197 826 223 845T283 864Q315 864 371 842Q389 835 406 830T437 825Q453 825 464 832T487 851Q500 864 507 864Q517
864 529 856T541 839Q541 832 536 823Q520 791 495 773T437 755Q403 755 347 777Q300 794 280 794Q264 794 254 787T233 768Q221 754 213 754Q204 754 192 761Z" />
<glyph unicode="&#xd2;" glyph-name="Ograve" horiz-adv-x="731" d="M214 -7T134 85T54 351Q54 526 134 616T365 707Q518 707 597 617T677 351Q677 176 597 85T365 -7Q214 -7 134 85ZM463 85T515 153T567 351Q567 481 516 547T365 614Q266 614 215 548T164 351Q164
221 215 153T365 85Q463 85 515 153ZM398 751T384 755T350 772L287 811Q265 825 258 833T250 849Q250 867 308 867Q341 867 357 862T387 842L441 784Q453 772 453 764Q453 758 445 755T423 751Q398 751 384 755Z" />
<glyph unicode="&#xd3;" glyph-name="Oacute" horiz-adv-x="731" d="M214 -7T134 85T54 351Q54 526 134 616T365 707Q518 707 597 617T677 351Q677 176 597 85T365 -7Q214 -7 134 85ZM463 85T515 153T567 351Q567 481 516 547T365 614Q266 614 215 548T164 351Q164
221 215 153T365 85Q463 85 515 153ZM294 751T286 754T278 764Q278 772 290 784L344 842Q357 857 373 862T422 867Q481 867 481 849Q481 841 474 833T444 811L380 772Q360 759 346 755T307 751Q294 751 286 754Z" />
<glyph unicode="&#xd4;" glyph-name="Ocircumflex" horiz-adv-x="731" d="M214 -7T134 85T54 351Q54 526 134 616T365 707Q518 707 597 617T677 351Q677 176 597 85T365 -7Q214 -7 134 85ZM463 85T515 153T567 351Q567 481 516 547T365 614Q266 614 215 548T164
351Q164 221 215 153T365 85Q463 85 515 153ZM231 740T231 750Q231 754 234 759T247 776L300 833Q312 846 323 851T356 856H376Q399 856 408 852T432 833L483 778Q495 765 498 760T501 750Q501 740 474 740Q450 740 428 754L366 793L306 755Q282 740 258 740Q231
740 231 750Z" />
<glyph unicode="&#xd5;" glyph-name="Otilde" horiz-adv-x="731" d="M214 -7T134 85T54 351Q54 526 134 616T365 707Q518 707 597 617T677 351Q677 176 597 85T365 -7Q214 -7 134 85ZM463 85T515 153T567 351Q567 481 516 547T365 614Q266 614 215 548T164 351Q164
221 215 153T365 85Q463 85 515 153ZM210 754T198 761T185 777Q185 782 189 794Q203 826 229 845T289 864Q321 864 377 842Q395 835 412 830T443 825Q459 825 470 832T493 851Q506 864 513 864Q523 864 535 856T547 839Q547 832 542 823Q526 791 501 773T443 755Q409
755 353 777Q306 794 286 794Q270 794 260 787T239 768Q227 754 219 754Q210 754 198 761Z" />
<glyph unicode="&#xd6;" glyph-name="Odieresis" horiz-adv-x="731" d="M214 -7T134 85T54 351Q54 526 134 616T365 707Q518 707 597 617T677 351Q677 176 597 85T365 -7Q214 -7 134 85ZM463 85T515 153T567 351Q567 481 516 547T365 614Q266 614 215 548T164
351Q164 221 215 153T365 85Q463 85 515 153ZM257 755T245 760T233 779V839Q233 852 245 858T283 864Q309 864 321 858T333 839V779Q333 766 321 761T283 755Q257 755 245 760ZM424 755T413 760T401 779V839Q401 852 412 858T450 864Q476 864 488 858T500 839V779Q500
766 488 761T450 755Q424 755 413 760Z" />
<glyph unicode="&#xd7;" glyph-name="multiply" horiz-adv-x="560" d="M91 3T72 22T53 51Q53 60 62 67L226 232L62 396Q53 405 53 412Q53 421 71 440T101 460Q107 460 117 452L281 287L445 452Q453 460 460 460Q471 460 489 442T508 412Q508 406 500 396L336 232L500
67Q508 59 508 52Q508 41 488 22T460 3Q453 3 445 11L281 177L117 11Q107 3 101 3Q91 3 72 22Z" />
<glyph unicode="&#xd8;" glyph-name="Oslash" horiz-adv-x="731" d="M677 513T677 351Q677 176 597 85T365 -7Q219 -7 139 79L75 7Q67 -3 59 -3Q51 -3 41 7T30 25Q30 34 37 41L108 120Q54 207 54 351Q54 526 134 616T365 707Q496 707 574 640L627 699Q635 708
643 708Q652 708 662 699T673 681Q673 676 666 665L609 602Q677 513 677 351ZM164 264T186 207L503 561Q453 614 365 614Q266 614 215 548T164 351Q164 264 186 207ZM463 85T515 153T567 351Q567 455 534 518L211 159Q262 85 365 85Q463 85 515 153Z" />
<glyph unicode="&#xd9;" glyph-name="Ugrave" horiz-adv-x="712" d="M223 -7T151 54T78 227V677Q78 702 124 702H139Q185 702 185 677V228Q185 165 233 125T356 85Q405 85 444 103T505 154T527 228V677Q527 702 573 702H588Q634 702 634 677V227Q634 116 562 55T356
-7Q223 -7 151 54ZM388 751T374 755T340 772L277 811Q255 825 248 833T240 849Q240 867 298 867Q331 867 347 862T377 842L431 784Q443 772 443 764Q443 758 435 755T413 751Q388 751 374 755Z" />
<glyph unicode="&#xda;" glyph-name="Uacute" horiz-adv-x="712" d="M223 -7T151 54T78 227V677Q78 702 124 702H139Q185 702 185 677V228Q185 165 233 125T356 85Q405 85 444 103T505 154T527 228V677Q527 702 573 702H588Q634 702 634 677V227Q634 116 562 55T356
-7Q223 -7 151 54ZM284 751T276 754T268 764Q268 772 280 784L334 842Q347 857 363 862T412 867Q471 867 471 849Q471 841 464 833T434 811L370 772Q350 759 336 755T297 751Q284 751 276 754Z" />
<glyph unicode="&#xdb;" glyph-name="Ucircumflex" horiz-adv-x="712" d="M223 -7T151 54T78 227V677Q78 702 124 702H139Q185 702 185 677V228Q185 165 233 125T356 85Q405 85 444 103T505 154T527 228V677Q527 702 573 702H588Q634 702 634 677V227Q634 116
562 55T356 -7Q223 -7 151 54ZM221 740T221 750Q221 754 224 759T237 776L290 833Q302 846 313 851T346 856H366Q389 856 398 852T422 833L473 778Q485 765 488 760T491 750Q491 740 464 740Q440 740 418 754L356 793L296 755Q272 740 248 740Q221 740 221 750Z"
/>
<glyph unicode="&#xdc;" glyph-name="Udieresis" horiz-adv-x="712" d="M223 -7T151 54T78 227V677Q78 702 124 702H139Q185 702 185 677V228Q185 165 233 125T356 85Q405 85 444 103T505 154T527 228V677Q527 702 573 702H588Q634 702 634 677V227Q634 116 562
55T356 -7Q223 -7 151 54ZM247 755T235 760T223 779V839Q223 852 235 858T273 864Q299 864 311 858T323 839V779Q323 766 311 761T273 755Q247 755 235 760ZM414 755T403 760T391 779V839Q391 852 402 858T440 864Q466 864 478 858T490 839V779Q490 766 478 761T440
755Q414 755 403 760Z" />
<glyph unicode="&#xdd;" glyph-name="Yacute" horiz-adv-x="559" d="M226 -2T226 23V352L20 664Q11 676 11 684Q11 702 62 702H83Q102 702 113 699T130 686L282 449L437 687Q447 702 487 702H502Q548 701 548 684Q548 677 540 664L333 349V23Q333 -2 287 -2H272Q226
-2 226 23ZM208 751T200 754T192 764Q192 772 204 784L258 842Q271 857 287 862T336 867Q395 867 395 849Q395 841 388 833T358 811L294 772Q274 759 260 755T221 751Q208 751 200 754Z" />
<glyph unicode="&#xde;" glyph-name="Thorn" horiz-adv-x="570" d="M80 -2T80 23V677Q80 702 126 702H142Q187 702 187 677V582H318Q408 582 477 540T546 380Q546 296 507 249T418 186T328 170H187V23Q187 -2 142 -2H126Q80 -2 80 23ZM324 262Q365 262 400 288T435
380Q435 441 400 465T314 490H187V262H324Z" />
<glyph unicode="&#xdf;" glyph-name="germandbls" horiz-adv-x="554" d="M81 -2T81 23V512Q81 569 107 613T179 682T287 707Q379 707 435 665T492 534Q492 488 465 447T392 387V384Q454 366 486 320T519 207Q519 143 491 97T413 25T299 0H270Q258 0 253 8T247
36V49Q247 68 252 76T270 85H297Q348 85 381 118T414 207Q414 264 381 298T294 332H270Q258 332 253 340T247 367V381Q247 417 269 417H277Q321 417 353 448T385 523Q385 572 357 595T285 619Q238 619 211 591T183 516V23Q183 -2 137 -2H127Q81 -2 81 23Z" />
<glyph unicode="&#xe0;" glyph-name="agrave" horiz-adv-x="545" d="M135 -7T91 31T47 142Q47 243 131 283T366 325V368Q366 403 342 424T265 445Q224 445 194 436T142 416T117 405Q106 405 92 428T77 464Q77 478 103 493T173 519T266 530Q365 530 416 488T468
370V156Q468 89 474 59T480 25Q480 11 456 5T410 -1Q394 -1 388 14T378 46T373 69Q346 37 306 15T211 -7Q135 -7 91 31ZM272 79T305 97T366 146V246Q269 246 211 228T153 150Q153 116 172 98T228 79Q272 79 305 97ZM270 575T257 580T230 601L175 661Q161 676 156
685T150 702Q150 711 162 714T199 718Q233 718 246 712T268 691L308 616Q309 613 314 604T320 588Q320 575 292 575Q270 575 257 580Z" />
<glyph unicode="&#xe1;" glyph-name="aacute" horiz-adv-x="545" d="M135 -7T91 31T47 142Q47 243 131 283T366 325V368Q366 403 342 424T265 445Q224 445 194 436T142 416T117 405Q106 405 92 428T77 464Q77 478 103 493T173 519T266 530Q365 530 416 488T468
370V156Q468 89 474 59T480 25Q480 11 456 5T410 -1Q394 -1 388 14T378 46T373 69Q346 37 306 15T211 -7Q135 -7 91 31ZM272 79T305 97T366 146V246Q269 246 211 228T153 150Q153 116 172 98T228 79Q272 79 305 97ZM203 575T203 588Q203 594 208 603T215 616L255
691Q263 706 276 712T323 718Q349 718 361 715T373 702Q373 695 368 686T348 661L293 601Q279 585 266 580T230 575Q203 575 203 588Z" />
<glyph unicode="&#xe2;" glyph-name="acircumflex" horiz-adv-x="545" d="M135 -7T91 31T47 142Q47 243 131 283T366 325V368Q366 403 342 424T265 445Q224 445 194 436T142 416T117 405Q106 405 92 428T77 464Q77 478 103 493T173 519T266 530Q365 530 416 488T468
370V156Q468 89 474 59T480 25Q480 11 456 5T410 -1Q394 -1 388 14T378 46T373 69Q346 37 306 15T211 -7Q135 -7 91 31ZM272 79T305 97T366 146V246Q269 246 211 228T153 150Q153 116 172 98T228 79Q272 79 305 97ZM147 575T147 588Q147 594 159 616L200 692Q207
706 220 712T263 718H282Q312 718 325 712T346 692L387 616Q389 612 393 603T398 588Q398 575 371 575Q352 575 342 580T319 599L273 654L227 599Q215 585 205 580T174 575Q147 575 147 588Z" />
<glyph unicode="&#xe3;" glyph-name="atilde" horiz-adv-x="545" d="M135 -7T91 31T47 142Q47 243 131 283T366 325V368Q366 403 342 424T265 445Q224 445 194 436T142 416T117 405Q106 405 92 428T77 464Q77 478 103 493T173 519T266 530Q365 530 416 488T468
370V156Q468 89 474 59T480 25Q480 11 456 5T410 -1Q394 -1 388 14T378 46T373 69Q346 37 306 15T211 -7Q135 -7 91 31ZM272 79T305 97T366 146V246Q269 246 211 228T153 150Q153 116 172 98T228 79Q272 79 305 97ZM118 589T105 595T92 611Q92 619 96 626Q123 695
191 695Q208 695 225 691T265 677Q282 671 299 666T331 661Q348 661 358 667T377 685Q379 687 383 692T394 697Q402 697 416 689T430 674Q430 667 425 657Q409 624 386 608T329 591Q312 591 296 595T250 610Q206 626 189 626Q174 626 165 620T145 602Q141 597 137
593T127 589Q118 589 105 595Z" />
<glyph unicode="&#xe4;" glyph-name="adieresis" horiz-adv-x="545" d="M135 -7T91 31T47 142Q47 243 131 283T366 325V368Q366 403 342 424T265 445Q224 445 194 436T142 416T117 405Q106 405 92 428T77 464Q77 478 103 493T173 519T266 530Q365 530 416 488T468
370V156Q468 89 474 59T480 25Q480 11 456 5T410 -1Q394 -1 388 14T378 46T373 69Q346 37 306 15T211 -7Q135 -7 91 31ZM272 79T305 97T366 146V246Q269 246 211 228T153 150Q153 116 172 98T228 79Q272 79 305 97ZM167 592T156 598T144 617V676Q144 689 155 694T193
700Q219 700 230 695T242 676V617Q242 604 231 598T193 592Q167 592 156 598ZM303 592T303 617V676Q303 689 314 694T352 700Q378 700 390 695T402 676V617Q402 604 390 598T352 592Q303 592 303 617Z" />
<glyph unicode="&#xe5;" glyph-name="aring" horiz-adv-x="545" d="M135 -7T91 31T47 142Q47 243 131 283T366 325V368Q366 403 342 424T265 445Q224 445 194 436T142 416T117 405Q106 405 92 428T77 464Q77 478 103 493T173 519T266 530Q365 530 416 488T468
370V156Q468 89 474 59T480 25Q480 11 456 5T410 -1Q394 -1 388 14T378 46T373 69Q346 37 306 15T211 -7Q135 -7 91 31ZM272 79T305 97T366 146V246Q269 246 211 228T153 150Q153 116 172 98T228 79Q272 79 305 97ZM234 562T209 587T183 650Q183 688 208 713T272
739Q310 739 336 714T362 650Q362 613 336 588T272 562Q234 562 209 587ZM288 614T298 624T309 650Q309 665 299 675T272 686Q257 686 247 676T237 650Q237 635 247 625T272 614Q288 614 298 624Z" />
<glyph unicode="&#xe6;" glyph-name="ae" horiz-adv-x="819" d="M139 -7T93 32T47 142Q47 231 122 272T337 315Q343 370 362 408Q336 445 265 445Q226 445 196 436T136 412Q120 405 117 405Q106 405 92 428T77 464Q77 478 103 493T173 519T266 530Q368 530 421
485Q477 530 567 530Q672 530 724 465T776 282Q776 272 762 254T738 236H443Q447 154 482 116T582 78Q620 78 648 87T697 106T721 117Q732 117 746 94T761 60Q761 44 735 29T666 3T581 -7Q459 -7 397 58Q365 31 319 12T217 -7Q139 -7 93 32ZM671 316Q671 379 644
412T565 445Q455 445 442 316H671ZM301 79T354 130Q337 175 334 236Q251 234 202 216T153 150Q153 116 172 98T228 79Q301 79 354 130Z" />
<glyph unicode="&#xe7;" glyph-name="ccedilla" horiz-adv-x="485" d="M459 28T413 12T311 -7L298 -51Q340 -54 363 -73T386 -124Q386 -211 270 -211Q229 -211 190 -198T151 -166Q151 -154 157 -145T172 -136Q176 -136 198 -142Q238 -156 268 -156Q287 -156 301
-149T316 -125Q316 -110 305 -104T273 -93Q257 -89 251 -86T244 -76Q244 -67 262 -6Q154 2 102 67T49 262Q49 403 115 466T292 530Q350 530 398 515T447 477Q447 463 433 440T408 416Q407 416 395 421Q372 431 349 438T293 445Q226 445 192 402T157 265Q157 167
189 123T298 78Q333 78 358 85T407 104Q419 108 420 108Q431 108 445 86T459 50Q459 28 413 12Z" />
<glyph unicode="&#xe8;" glyph-name="egrave" horiz-adv-x="539" d="M51 -7T51 258Q51 393 112 461T287 530Q392 530 444 462T496 269Q496 259 482 241T458 223H159Q165 147 200 113T302 78Q340 78 368 87T417 106T441 117Q452 117 466 94T481 60Q481 44 455 29T386
3T301 -7Q51 -7 51 258ZM391 303Q391 372 365 408T285 445Q172 445 159 303H391ZM273 575T260 580T233 601L178 661Q164 676 159 685T153 702Q153 711 165 714T202 718Q236 718 249 712T271 691L311 616Q312 613 317 604T323 588Q323 575 295 575Q273 575 260 580Z"
/>
<glyph unicode="&#xe9;" glyph-name="eacute" horiz-adv-x="539" d="M51 -7T51 258Q51 393 112 461T287 530Q392 530 444 462T496 269Q496 259 482 241T458 223H159Q165 147 200 113T302 78Q340 78 368 87T417 106T441 117Q452 117 466 94T481 60Q481 44 455 29T386
3T301 -7Q51 -7 51 258ZM391 303Q391 372 365 408T285 445Q172 445 159 303H391ZM206 575T206 588Q206 594 211 603T218 616L258 691Q266 706 279 712T326 718Q352 718 364 715T376 702Q376 695 371 686T351 661L296 601Q282 585 269 580T233 575Q206 575 206 588Z"
/>
<glyph unicode="&#xea;" glyph-name="ecircumflex" horiz-adv-x="539" d="M51 -7T51 258Q51 393 112 461T287 530Q392 530 444 462T496 269Q496 259 482 241T458 223H159Q165 147 200 113T302 78Q340 78 368 87T417 106T441 117Q452 117 466 94T481 60Q481 44
455 29T386 3T301 -7Q51 -7 51 258ZM391 303Q391 372 365 408T285 445Q172 445 159 303H391ZM151 575T151 588Q151 594 163 616L204 692Q211 706 224 712T267 718H286Q316 718 329 712T350 692L391 616Q393 612 397 603T402 588Q402 575 375 575Q356 575 346 580T323
599L277 654L231 599Q219 585 209 580T178 575Q151 575 151 588Z" />
<glyph unicode="&#xeb;" glyph-name="edieresis" horiz-adv-x="539" d="M51 -7T51 258Q51 393 112 461T287 530Q392 530 444 462T496 269Q496 259 482 241T458 223H159Q165 147 200 113T302 78Q340 78 368 87T417 106T441 117Q452 117 466 94T481 60Q481 44 455
29T386 3T301 -7Q51 -7 51 258ZM391 303Q391 372 365 408T285 445Q172 445 159 303H391ZM170 592T159 598T147 617V676Q147 689 158 694T196 700Q222 700 233 695T245 676V617Q245 604 234 598T196 592Q170 592 159 598ZM306 592T306 617V676Q306 689 317 694T355
700Q381 700 393 695T405 676V617Q405 604 393 598T355 592Q306 592 306 617Z" />
<glyph unicode="&#xec;" glyph-name="igrave" horiz-adv-x="265" d="M82 -2T82 23V500Q82 525 128 525H138Q184 525 184 500V23Q184 -2 138 -2H128Q82 -2 82 23ZM130 575T117 580T90 601L35 661Q21 676 16 685T10 702Q10 711 22 714T59 718Q93 718 106 712T128
691L168 616Q169 613 174 604T180 588Q180 575 152 575Q130 575 117 580Z" />
<glyph unicode="&#xed;" glyph-name="iacute" horiz-adv-x="265" d="M82 -2T82 23V500Q82 525 128 525H138Q184 525 184 500V23Q184 -2 138 -2H128Q82 -2 82 23ZM63 575T63 588Q63 594 68 603T75 616L115 691Q123 706 136 712T183 718Q209 718 221 715T233 702Q233
695 228 686T208 661L153 601Q139 585 126 580T90 575Q63 575 63 588Z" />
<glyph unicode="&#xee;" glyph-name="icircumflex" horiz-adv-x="265" d="M82 -2T82 23V500Q82 525 128 525H138Q184 525 184 500V23Q184 -2 138 -2H128Q82 -2 82 23ZM7 575T7 588Q7 594 19 616L60 692Q67 706 80 712T123 718H142Q172 718 185 712T206 692L247
616Q249 612 253 603T258 588Q258 575 231 575Q212 575 202 580T179 599L133 654L87 599Q75 585 65 580T34 575Q7 575 7 588Z" />
<glyph unicode="&#xef;" glyph-name="idieresis" horiz-adv-x="265" d="M82 -2T82 23V500Q82 525 128 525H138Q184 525 184 500V23Q184 -2 138 -2H128Q82 -2 82 23ZM27 592T16 598T4 617V676Q4 689 15 694T53 700Q79 700 90 695T102 676V617Q102 604 91 598T53
592Q27 592 16 598ZM163 592T163 617V676Q163 689 174 694T212 700Q238 700 250 695T262 676V617Q262 604 250 598T212 592Q163 592 163 617Z" />
<glyph unicode="&#xf0;" glyph-name="eth" horiz-adv-x="569" d="M458 537T488 445T518 260Q518 130 459 62T286 -7Q171 -7 111 61T51 260Q51 390 112 460T286 530Q321 530 358 520Q338 562 316 602L237 591Q226 591 217 602T208 626Q208 637 224 640L288 649Q283
656 271 673T258 697Q258 708 275 711Q308 714 312 714Q331 714 342 703Q361 683 377 660L452 671Q464 671 472 658T480 636Q480 623 464 622L408 615Q458 537 488 445ZM350 78T381 123T413 261Q413 354 382 399T284 445Q219 445 188 400T156 261Q156 168 187 123T284
78Q350 78 381 123Z" />
<glyph unicode="&#xf1;" glyph-name="ntilde" horiz-adv-x="557" d="M79 -2T79 23V364Q79 430 73 460T67 494Q67 508 92 514T138 520Q153 520 159 506T169 476T174 454Q204 489 245 509T328 530Q404 530 445 488T487 368V23Q487 -2 441 -2H430Q384 -2 384 23V356Q384
397 361 419T294 442Q262 442 232 424T182 376V23Q182 -2 136 -2H125Q79 -2 79 23ZM124 589T111 595T98 611Q98 619 102 626Q129 695 197 695Q214 695 231 691T271 677Q288 671 305 666T337 661Q354 661 364 667T383 685Q385 687 389 692T400 697Q408 697 422 689T436
674Q436 667 431 657Q415 624 392 608T335 591Q318 591 302 595T256 610Q212 626 195 626Q180 626 171 620T151 602Q147 597 143 593T133 589Q124 589 111 595Z" />
<glyph unicode="&#xf2;" glyph-name="ograve" horiz-adv-x="569" d="M171 -7T111 61T51 260Q51 390 112 460T286 530Q399 530 458 461T518 260Q518 130 459 62T286 -7Q171 -7 111 61ZM350 78T381 123T413 261Q413 354 382 399T284 445Q219 445 188 400T157 261Q157
168 187 123T284 78Q350 78 381 123ZM282 575T269 580T242 601L187 661Q173 676 168 685T162 702Q162 711 174 714T211 718Q245 718 258 712T280 691L320 616Q321 613 326 604T332 588Q332 575 304 575Q282 575 269 580Z" />
<glyph unicode="&#xf3;" glyph-name="oacute" horiz-adv-x="569" d="M171 -7T111 61T51 260Q51 390 112 460T286 530Q399 530 458 461T518 260Q518 130 459 62T286 -7Q171 -7 111 61ZM350 78T381 123T413 261Q413 354 382 399T284 445Q219 445 188 400T157 261Q157
168 187 123T284 78Q350 78 381 123ZM215 575T215 588Q215 594 220 603T227 616L267 691Q275 706 288 712T335 718Q361 718 373 715T385 702Q385 695 380 686T360 661L305 601Q291 585 278 580T242 575Q215 575 215 588Z" />
<glyph unicode="&#xf4;" glyph-name="ocircumflex" horiz-adv-x="569" d="M171 -7T111 61T51 260Q51 390 112 460T286 530Q399 530 458 461T518 260Q518 130 459 62T286 -7Q171 -7 111 61ZM350 78T381 123T413 261Q413 354 382 399T284 445Q219 445 188 400T157
261Q157 168 187 123T284 78Q350 78 381 123ZM159 575T159 588Q159 594 171 616L212 692Q219 706 232 712T275 718H294Q324 718 337 712T358 692L399 616Q401 612 405 603T410 588Q410 575 383 575Q364 575 354 580T331 599L285 654L239 599Q227 585 217 580T186
575Q159 575 159 588Z" />
<glyph unicode="&#xf5;" glyph-name="otilde" horiz-adv-x="569" d="M171 -7T111 61T51 260Q51 390 112 460T286 530Q399 530 458 461T518 260Q518 130 459 62T286 -7Q171 -7 111 61ZM350 78T381 123T413 261Q413 354 382 399T284 445Q219 445 188 400T157 261Q157
168 187 123T284 78Q350 78 381 123ZM130 589T117 595T104 611Q104 619 108 626Q135 695 203 695Q220 695 237 691T277 677Q294 671 311 666T343 661Q360 661 370 667T389 685Q391 687 395 692T406 697Q414 697 428 689T442 674Q442 667 437 657Q421 624 398 608T341
591Q324 591 308 595T262 610Q218 626 201 626Q186 626 177 620T157 602Q153 597 149 593T139 589Q130 589 117 595Z" />
<glyph unicode="&#xf6;" glyph-name="odieresis" horiz-adv-x="569" d="M171 -7T111 61T51 260Q51 390 112 460T286 530Q399 530 458 461T518 260Q518 130 459 62T286 -7Q171 -7 111 61ZM350 78T381 123T413 261Q413 354 382 399T284 445Q219 445 188 400T157
261Q157 168 187 123T284 78Q350 78 381 123ZM179 592T168 598T156 617V676Q156 689 167 694T205 700Q231 700 242 695T254 676V617Q254 604 243 598T205 592Q179 592 168 598ZM315 592T315 617V676Q315 689 326 694T364 700Q390 700 402 695T414 676V617Q414 604
402 598T364 592Q315 592 315 617Z" />
<glyph unicode="&#xf7;" glyph-name="divide" horiz-adv-x="560" d="M231 354T231 378V435Q231 460 277 460H283Q329 460 329 435V378Q329 354 283 354H277Q231 354 231 378ZM55 188T50 196T44 223V235Q44 254 49 262T67 270H493Q505 270 510 262T516 235V223Q516
204 511 196T493 188H67Q55 188 50 196ZM231 -2T231 23V80Q231 105 277 105H283Q329 105 329 80V23Q329 -2 283 -2H277Q231 -2 231 23Z" />
<glyph unicode="&#xf8;" glyph-name="oslash" horiz-adv-x="569" d="M474 440Q518 372 518 260Q518 130 459 62T286 -7Q191 -7 132 41L103 7Q96 -2 87 -2Q78 -2 68 7T57 26Q57 32 65 42L97 79Q51 148 51 260Q51 390 112 460T286 530Q381 530 440 479L474 518Q482
528 490 528Q498 528 508 518T519 500Q519 492 512 484L474 440ZM157 202T169 163L377 405Q346 445 284 445Q219 445 188 400T157 261Q157 202 169 163ZM413 316T402 355L195 114Q225 78 284 78Q350 78 381 123T413 261Q413 316 402 355Z" />
<glyph unicode="&#xf9;" glyph-name="ugrave" horiz-adv-x="557" d="M153 -7T112 35T70 155V500Q70 525 116 525H127Q173 525 173 500V167Q173 126 196 104T263 81Q295 81 325 99T375 147V500Q375 525 421 525H432Q478 525 478 500V156Q478 89 484 59T490 25Q490
11 465 5T419 -1Q404 -1 398 14T388 46T383 69Q354 34 313 14T229 -7Q153 -7 112 35ZM270 575T257 580T230 601L175 661Q161 676 156 685T150 702Q150 711 162 714T199 718Q233 718 246 712T268 691L308 616Q309 613 314 604T320 588Q320 575 292 575Q270 575 257
580Z" />
<glyph unicode="&#xfa;" glyph-name="uacute" horiz-adv-x="557" d="M153 -7T112 35T70 155V500Q70 525 116 525H127Q173 525 173 500V167Q173 126 196 104T263 81Q295 81 325 99T375 147V500Q375 525 421 525H432Q478 525 478 500V156Q478 89 484 59T490 25Q490
11 465 5T419 -1Q404 -1 398 14T388 46T383 69Q354 34 313 14T229 -7Q153 -7 112 35ZM203 575T203 588Q203 594 208 603T215 616L255 691Q263 706 276 712T323 718Q349 718 361 715T373 702Q373 695 368 686T348 661L293 601Q279 585 266 580T230 575Q203 575 203
588Z" />
<glyph unicode="&#xfb;" glyph-name="ucircumflex" horiz-adv-x="557" d="M153 -7T112 35T70 155V500Q70 525 116 525H127Q173 525 173 500V167Q173 126 196 104T263 81Q295 81 325 99T375 147V500Q375 525 421 525H432Q478 525 478 500V156Q478 89 484 59T490
25Q490 11 465 5T419 -1Q404 -1 398 14T388 46T383 69Q354 34 313 14T229 -7Q153 -7 112 35ZM148 575T148 588Q148 594 160 616L201 692Q208 706 221 712T264 718H283Q313 718 326 712T347 692L388 616Q390 612 394 603T399 588Q399 575 372 575Q353 575 343 580T320
599L274 654L228 599Q216 585 206 580T175 575Q148 575 148 588Z" />
<glyph unicode="&#xfc;" glyph-name="udieresis" horiz-adv-x="557" d="M153 -7T112 35T70 155V500Q70 525 116 525H127Q173 525 173 500V167Q173 126 196 104T263 81Q295 81 325 99T375 147V500Q375 525 421 525H432Q478 525 478 500V156Q478 89 484 59T490 25Q490
11 465 5T419 -1Q404 -1 398 14T388 46T383 69Q354 34 313 14T229 -7Q153 -7 112 35ZM167 592T156 598T144 617V676Q144 689 155 694T193 700Q219 700 230 695T242 676V617Q242 604 231 598T193 592Q167 592 156 598ZM303 592T303 617V676Q303 689 314 694T352
700Q378 700 390 695T402 676V617Q402 604 390 598T352 592Q303 592 303 617Z" />
<glyph unicode="&#xfd;" glyph-name="yacute" horiz-adv-x="481" d="M466 525T466 507Q466 502 463 491L214 -186Q207 -207 165 -207H149Q108 -207 108 -190Q108 -187 113 -173L191 21L19 492Q16 504 16 507Q16 525 64 525H79Q118 525 123 508L213 261Q226 227
244 155H246L254 182Q268 231 278 261L366 508Q371 525 412 525H421Q466 525 466 507ZM171 575T171 588Q171 594 176 603T183 616L223 691Q231 706 244 712T291 718Q317 718 329 715T341 702Q341 695 336 686T316 661L261 601Q247 585 234 580T198 575Q171 575
171 588Z" />
<glyph unicode="&#xfe;" glyph-name="thorn" horiz-adv-x="573" d="M81 -207T81 -183V728Q81 753 127 753H138Q184 753 184 728V464Q247 530 328 530Q386 530 429 497T496 402T520 260Q520 135 465 64T315 -7Q275 -7 244 5T184 39V-183Q184 -207 138 -207H127Q81
-207 81 -183ZM353 80T383 125T414 256Q414 346 386 394T304 443Q272 443 241 426T184 377V117Q230 80 292 80Q353 80 383 125Z" />
<glyph unicode="&#xff;" glyph-name="ydieresis" horiz-adv-x="481" d="M466 525T466 507Q466 502 463 491L214 -186Q207 -207 165 -207H149Q108 -207 108 -190Q108 -187 113 -173L191 21L19 492Q16 504 16 507Q16 525 64 525H79Q118 525 123 508L213 261Q226
227 244 155H246L254 182Q268 231 278 261L366 508Q371 525 412 525H421Q466 525 466 507ZM135 592T124 598T112 617V676Q112 689 123 694T161 700Q187 700 198 695T210 676V617Q210 604 199 598T161 592Q135 592 124 598ZM271 592T271 617V676Q271 689 282 694T320
700Q346 700 358 695T370 676V617Q370 604 358 598T320 592Q271 592 271 617Z" />
<glyph unicode="&#x2013;" glyph-name="endash" horiz-adv-x="500" d="M61 225T56 233T50 261V270Q50 289 55 297T73 305H427Q439 305 444 297T450 270V261Q450 242 445 234T427 225H73Q61 225 56 233Z" />
<glyph unicode="&#x2014;" glyph-name="emdash" horiz-adv-x="1000" d="M71 225T66 233T60 261V270Q60 289 65 297T83 305H917Q929 305 934 297T940 270V261Q940 242 935 234T917 225H83Q71 225 66 233Z" />
<glyph unicode="&#x2018;" glyph-name="quoteleft" horiz-adv-x="212" d="M74 504T62 513T50 537Q50 592 70 639T117 715T163 744Q175 744 186 740T197 727Q197 719 189 703Q172 669 163 631T154 540Q154 523 143 514T108 504H96Q74 504 62 513Z" />
<glyph unicode="&#x2019;" glyph-name="quoteright" horiz-adv-x="212" d="M47 515T36 519T25 532Q25 538 29 546T34 557Q51 593 60 631T69 719Q69 755 114 755H126Q148 755 160 746T172 722Q172 668 152 620T105 544T59 515Q47 515 36 519Z" />
<glyph unicode="&#x201a;" glyph-name="quotesinglbase" horiz-adv-x="198" d="M25 -118T14 -114T3 -101Q3 -95 7 -87T12 -76Q29 -40 38 -2T47 86Q47 122 92 122H104Q126 122 138 113T150 89Q150 35 130 -13T83 -89T37 -118Q25 -118 14 -114Z" />
<glyph unicode="&#x201c;" glyph-name="quotedblleft" horiz-adv-x="350" d="M216 504T204 513T192 537Q192 592 212 639T259 715T305 744Q317 744 328 740T339 727Q339 719 331 703Q314 669 305 631T296 540Q296 523 285 514T250 504H238Q216 504 204 513ZM322
504T310 513T298 537Q298 592 318 639T365 715T411 744Q423 744 434 740T445 727Q445 719 437 703Q420 669 411 631T402 540Q402 523 391 514T356 504H344Q322 504 310 513Z" />
<glyph unicode="&#x201d;" glyph-name="quotedblright" horiz-adv-x="350" d="M195 515T184 519T173 532Q173 538 177 546T182 557Q199 593 208 631T217 719Q217 755 262 755H274Q296 755 308 746T320 722Q320 668 300 620T253 544T207 515Q195 515 184 519ZM301
515T290 519T279 532Q279 538 283 546T288 557Q305 593 314 631T323 719Q323 755 368 755H380Q402 755 414 746T426 722Q426 668 406 620T359 544T313 515Q301 515 290 519Z" />
<glyph unicode="&#x201e;" glyph-name="quotedblbase" horiz-adv-x="350" d="M188 -119T177 -115T166 -102Q166 -96 170 -88T175 -77Q192 -41 201 -3T210 85Q210 121 255 121H267Q289 121 301 112T313 88Q313 34 293 -14T246 -90T200 -119Q188 -119 177 -115ZM294
-119T283 -115T272 -102Q272 -96 276 -88T281 -77Q298 -41 307 -3T316 85Q316 121 361 121H373Q395 121 407 112T419 88Q419 34 399 -14T352 -90T306 -119Q294 -119 283 -115Z" />
<glyph unicode="&#x2022;" glyph-name="bullet" horiz-adv-x="336" d="M115 199T78 236T41 326Q41 379 78 416T168 454Q221 454 258 417T296 326Q296 273 259 236T168 199Q115 199 78 236Z" />
<glyph unicode="&#x2039;" glyph-name="guilsinglleft" horiz-adv-x="300" d="M189 57T178 70L49 225Q35 242 35 258Q35 274 49 291L178 446Q189 458 201 458Q213 458 228 446T243 421Q243 412 235 401L124 258L235 114Q243 103 243 94Q243 83 229 70T201 57Q189
57 178 70Z" />
<glyph unicode="&#x203a;" glyph-name="guilsinglright" horiz-adv-x="300" d="M86 57T72 70T57 94Q57 103 65 114L176 258L65 401Q57 412 57 421Q57 434 72 446T99 458Q112 458 122 446L251 291Q265 274 265 258Q265 242 251 225L122 70Q111 57 99 57Q86 57 72 70Z" />
</font>
</defs>
</svg>
