<?xml version="1.0" standalone="no"?>
<!DOCTYPE svg PUBLIC "-//W3C//DTD SVG 1.1//EN" "http://www.w3.org/Graphics/SVG/1.1/DTD/svg11.dtd">
<svg xmlns="http://www.w3.org/2000/svg">
<defs >
<font id="Asap" horiz-adv-x="536" ><font-face
    font-family="Asap SemiBold"
    units-per-em="1000"
    panose-1="2 15 7 4 3 2 2 6 2 3"
    ascent="934"
    descent="-212"
    alphabetic="0" />
<glyph unicode=" " glyph-name="space" horiz-adv-x="240" />
<glyph unicode="!" glyph-name="exclam" horiz-adv-x="294" d="M117 215T108 222T98 244V673Q98 702 151 702H186Q239 702 239 676L225 532Q207 340 197 244Q195 228 186 222T153 215H142Q117 215 108 222ZM81 -2T81 27V110Q81 138 134 138H161Q214 138 214 110V27Q214
-2 161 -2H134Q81 -2 81 27Z" />
<glyph unicode="&quot;" glyph-name="quotedbl" horiz-adv-x="320" d="M312 467T309 491L287 673Q285 687 298 694T340 702H350Q378 702 391 695T403 673L381 491Q379 478 372 473T351 467H339Q312 467 309 491ZM198 467T195 491L173 673Q171 687 184 694T226
702H236Q264 702 277 695T289 673L267 491Q265 478 258 473T237 467H225Q198 467 195 491Z" />
<glyph unicode="#" glyph-name="numbersign" horiz-adv-x="534" d="M80 -2T71 2T61 19Q61 25 75 97L92 188H37Q23 188 17 198T11 231V243Q11 265 17 275T37 286H110L133 409H73Q59 409 53 419T47 452V464Q47 487 53 497T73 507H150L178 658Q181 673 192 679T230
686H240Q279 686 279 666L250 507H352L380 658Q382 673 394 679T432 686H442Q481 686 481 666L453 507H498Q512 507 518 497T524 464V452Q524 430 518 420T498 409H434L412 286H466Q480 286 486 276T492 243V231Q492 208 486 198T466 188H393L364 26Q361 11 349
5T313 -2H303Q282 -2 273 2T263 19Q263 22 268 46L294 188H192L162 26Q159 11 148 5T111 -2H101Q80 -2 71 2ZM312 286L335 409H233L210 286H312Z" />
<glyph unicode="$" glyph-name="dollar" horiz-adv-x="500" d="M476 112T429 59T290 -5V-55Q290 -78 264 -78H259Q233 -78 233 -55V-7Q141 -4 79 26Q54 38 40 51T26 76Q26 95 46 123T79 152Q85 152 105 141Q169 106 233 105V299L223 303Q140 336 90 387T40 510Q40
591 91 643T233 704V742Q233 765 259 765H264Q290 765 290 742V705Q329 704 363 695T419 672Q445 656 445 640Q445 622 428 594T398 565Q393 565 381 569T361 577Q332 589 290 593V415Q375 379 425 327T476 201Q476 112 429 59ZM165 494T182 476T233 440V593Q202
588 184 569T165 520Q165 494 182 476ZM320 119T335 138T351 191Q351 220 336 239T290 275V111Q320 119 335 138Z" />
<glyph unicode="%" glyph-name="percent" horiz-adv-x="765" d="M130 375T88 411T46 541Q46 634 87 670T192 707Q253 707 295 671T337 541Q337 448 295 412T192 375Q130 375 88 411ZM164 -4T158 -1T152 8Q152 13 157 21L519 679Q533 703 562 703H592Q614 703 614
691Q614 689 610 679L247 21Q233 -4 204 -4H174Q164 -4 158 -1ZM248 448T248 541Q248 580 237 606T192 632Q159 632 148 606T136 541Q136 448 192 448Q248 448 248 541ZM511 -7T470 29T428 159Q428 252 469 288T573 325Q635 325 677 289T719 159Q719 66 677 30T573
-7Q511 -7 470 29ZM629 66T629 159Q629 198 618 224T573 250Q517 250 517 159Q517 66 573 66Q629 66 629 159Z" />
<glyph unicode="&amp;" glyph-name="ampersand" horiz-adv-x="624" d="M611 98T619 73T627 35Q627 -7 539 -7Q468 -7 432 34Q393 14 353 4T257 -7Q195 -7 144 17T63 88T32 204Q32 271 64 318T152 384V388Q108 407 82 445T55 535Q55 616 110 661T259 707Q303 707
332 700T361 669Q361 643 352 621T330 598Q326 598 311 602T277 606Q228 606 206 580T183 516Q183 476 212 448T296 420H399L411 518Q416 547 458 547H481Q524 547 524 518V420H586Q600 420 606 410T612 377V361Q612 339 606 329T586 318H524V148Q524 119 535 107T567
94Q577 94 586 96T599 98Q611 98 619 73ZM161 150T194 122T275 94Q333 94 399 124V131V318H289Q224 318 193 291T161 205Q161 150 194 122Z" />
<glyph unicode="&apos;" glyph-name="quotesingle" horiz-adv-x="192" d="M63 467T60 491L38 673Q36 687 49 694T91 702H101Q129 702 142 695T154 673L132 491Q130 478 123 473T102 467H90Q63 467 60 491Z" />
<glyph unicode="(" glyph-name="parenleft" horiz-adv-x="301" d="M225 -209T214 -195Q137 -100 95 25T52 287Q52 424 94 549T214 769Q225 783 239 783Q253 783 270 771T287 744Q287 734 280 724Q218 622 188 515T157 287Q157 164 186 57T280 -150Q286 -158 286
-170Q286 -183 270 -196T239 -209Q225 -209 214 -195Z" />
<glyph unicode=")" glyph-name="parenright" horiz-adv-x="301" d="M46 -209T29 -197T12 -170Q12 -160 17 -152Q81 -50 111 57T142 287Q142 410 113 517T19 724Q13 732 13 744Q13 757 29 770T60 783Q74 783 85 769Q162 674 204 549T247 287Q247 150 205 25T85
-195Q74 -209 60 -209Q46 -209 29 -197Z" />
<glyph unicode="*" glyph-name="asterisk" horiz-adv-x="373" d="M93 412T83 421T73 438Q73 447 81 456L142 541L59 568Q40 575 40 588Q40 601 46 611T64 621Q72 621 77 619L161 592V682Q161 696 167 702T188 708Q214 708 214 682V592L298 619Q302 621 309 621Q318
621 326 613T334 589Q334 581 330 577T315 568L231 541L293 456Q300 448 300 438Q300 430 290 421T271 412Q260 412 251 425L187 514L123 425Q114 412 103 412Q93 412 83 421Z" />
<glyph unicode="+" glyph-name="plus" horiz-adv-x="560" d="M251 -1T241 5T231 26V187H70Q56 187 50 197T43 230V237Q43 260 49 270T70 280H231V443Q231 457 241 463T274 470H285Q308 470 318 464T328 443V280H490Q504 280 510 270T517 237V230Q517 207 511 197T490
187H328V26Q328 12 318 6T285 -1H274Q251 -1 241 5Z" />
<glyph unicode="," glyph-name="comma" horiz-adv-x="198" d="M22 -122T10 -117T-3 -102Q-3 -94 6 -72Q22 -33 31 4T41 98Q41 117 54 127T94 138H109Q135 138 148 128T162 100Q162 46 140 -5T88 -89T36 -122Q22 -122 10 -117Z" />
<glyph unicode="-" glyph-name="hyphen" horiz-adv-x="320" d="M46 218T40 228T34 261V269Q34 292 40 302T60 312H260Q274 312 280 302T286 269V261Q286 239 280 229T260 218H60Q46 218 40 228Z" />
<glyph unicode="." glyph-name="period" horiz-adv-x="198" d="M33 -2T33 27V110Q33 138 86 138H113Q166 138 166 110V27Q166 -2 113 -2H86Q33 -2 33 27Z" />
<glyph unicode="/" glyph-name="slash" horiz-adv-x="422" d="M9 -78T9 -62Q9 -58 17 -38L309 678Q315 692 327 697T361 702H371Q393 702 403 698T413 686Q413 678 404 660L112 -56Q107 -69 96 -73T63 -78H50Q9 -78 9 -62Z" />
<glyph unicode="0" glyph-name="zero" horiz-adv-x="535" d="M198 -7T145 34T63 155T34 350Q34 464 63 544T145 666T268 707Q338 707 390 666T472 545T502 350Q502 236 473 156T391 34T268 -7Q198 -7 145 34ZM316 94T345 158T374 350Q374 477 345 541T268 606Q219
606 191 542T162 350Q162 223 190 159T268 94Q316 94 345 158Z" />
<glyph unicode="1" glyph-name="one" horiz-adv-x="535" d="M69 0T63 10T56 43V58Q56 81 62 91T83 101H230V582L80 558Q65 558 59 582T52 631Q52 651 75 656L318 703Q331 703 343 696T356 680V101H470Q484 101 490 91T497 58V43Q497 20 491 10T470 0H83Q69 0 63 10Z" />
<glyph unicode="2" glyph-name="two" horiz-adv-x="535" d="M56 0T49 25T41 73Q41 84 44 88L299 403Q326 438 336 463T347 516Q347 558 319 581T243 605Q211 605 187 595T139 570Q135 568 128 564T115 559Q98 559 82 581T66 622Q66 647 96 666T171 696T259 707Q360
707 417 656T475 520Q475 482 465 450T430 381T356 284L208 101H458Q472 101 478 91T485 58V43Q485 20 479 10T458 0H66Q56 0 49 25Z" />
<glyph unicode="3" glyph-name="three" horiz-adv-x="535" d="M174 -7T107 12T39 66Q39 82 54 107T83 133Q90 133 110 123Q141 110 168 102T233 94Q281 94 314 122T347 205Q347 264 316 291T219 318H189Q175 318 169 328T163 361V376Q163 399 169 409T189 419H212Q267
419 296 448T325 519Q325 556 302 580T231 605Q195 605 171 599T126 582Q112 574 104 574Q92 574 76 598T60 641Q60 671 119 689T249 707Q342 707 397 661T453 532Q453 481 427 444T356 388V384Q412 365 444 318T476 204Q476 136 446 89T364 17T251 -7Q174 -7 107
12Z" />
<glyph unicode="4" glyph-name="four" horiz-adv-x="535" d="M317 -2T317 27V151H41Q30 151 19 180T8 229Q8 236 10 240L318 685Q326 695 338 698T370 702H393Q443 702 443 673V252H491Q505 252 511 242T517 209V194Q517 172 511 162T491 151H443V27Q443 -2 393
-2H367Q317 -2 317 27ZM317 252V439Q317 486 326 526L322 527L140 252H317Z" />
<glyph unicode="5" glyph-name="five" horiz-adv-x="535" d="M180 -7T136 2T66 28T41 61Q41 76 58 103T89 130Q91 130 109 123Q136 111 165 103T233 94Q288 94 322 125T357 212Q357 332 213 332H112Q92 332 85 340T78 369L96 663Q98 683 107 691T135 700H420Q434
700 440 690T446 657V635Q446 616 440 608T420 599H213L202 434H237Q484 434 484 215Q484 98 411 46T234 -7Q180 -7 136 2Z" />
<glyph unicode="6" glyph-name="six" horiz-adv-x="535" d="M203 -7T152 20T70 106T39 251Q39 408 110 509T266 656T383 703Q403 703 415 677T427 631Q427 623 425 619T416 613Q332 584 273 527T189 392Q239 420 301 420Q347 420 392 398T466 329T496 212Q496
140 464 91T380 18T267 -7Q203 -7 152 20ZM309 94T339 125T369 208Q369 261 340 290T264 319Q218 319 169 291Q167 257 167 240Q167 162 196 128T270 94Q309 94 339 125Z" />
<glyph unicode="7" glyph-name="seven" horiz-adv-x="535" d="M89 -2T89 17Q89 21 94 33L357 599H77Q63 599 57 609T50 642V657Q50 680 56 690T77 700H473Q480 700 489 673T499 624Q499 617 497 611L223 17Q214 -2 171 -2H143Q89 -2 89 17Z" />
<glyph unicode="8" glyph-name="eight" horiz-adv-x="535" d="M158 -7T98 50T37 201Q37 271 65 314T141 377Q64 426 64 524Q64 576 89 617T161 683T274 707Q334 707 379 685T450 624T475 534Q475 475 452 441T385 384Q438 360 468 316T498 195Q498 139 473 93T396
20T270 -7Q158 -7 98 50ZM352 465T352 527Q352 564 329 585T270 606Q235 606 212 586T189 527Q189 485 213 464T287 424Q352 465 352 527ZM314 94T342 125T371 201Q371 241 353 265T309 302T232 334Q199 313 182 283T164 207Q164 155 192 125T268 94Q314 94 342
125Z" />
<glyph unicode="9" glyph-name="nine" horiz-adv-x="535" d="M132 -4T120 23T107 69Q107 77 109 80T118 86Q201 114 261 172T346 307Q294 279 234 279Q188 279 143 301T69 371T39 488Q39 560 71 609T154 682T267 706Q367 706 431 642T495 448Q495 291 424 190T268
43T151 -4Q132 -4 120 23ZM315 381T365 408Q367 425 367 459Q367 537 338 571T265 605Q225 605 196 575T166 492Q166 438 194 410T270 381Q315 381 365 408Z" />
<glyph unicode=":" glyph-name="colon" horiz-adv-x="198" d="M33 385T33 413V496Q33 525 86 525H113Q166 525 166 496V413Q166 385 113 385H86Q33 385 33 413ZM33 -2T33 27V110Q33 138 86 138H113Q166 138 166 110V27Q166 -2 113 -2H86Q33 -2 33 27Z" />
<glyph unicode=";" glyph-name="semicolon" horiz-adv-x="198" d="M33 385T33 413V496Q33 525 86 525H113Q166 525 166 496V413Q166 385 113 385H86Q33 385 33 413ZM22 -122T10 -117T-3 -102Q-3 -94 6 -72Q22 -33 31 4T41 98Q41 117 54 127T94 138H109Q135 138
148 128T162 100Q162 46 140 -5T88 -89T36 -122Q22 -122 10 -117Z" />
<glyph unicode="&lt;" glyph-name="less" horiz-adv-x="560" d="M495 9T486 12L69 190Q55 197 49 206T43 230V248Q43 263 49 272T69 288L485 465Q491 468 500 468Q517 468 517 432V417Q517 376 489 365L175 239L490 112Q518 101 518 60V45Q518 9 501 9Q495 9 486 12Z" />
<glyph unicode="=" glyph-name="equal" horiz-adv-x="560" d="M56 267T50 277T43 310V320Q43 343 49 353T70 363H490Q504 363 510 353T517 320V310Q517 287 511 277T490 267H70Q56 267 50 277ZM56 93T50 103T43 136V145Q43 168 49 178T70 188H490Q504 188 510
178T517 145V136Q517 113 511 103T490 93H70Q56 93 50 103Z" />
<glyph unicode="&gt;" glyph-name="greater" horiz-adv-x="560" d="M42 9T42 45V60Q42 101 70 112L384 239L70 365Q43 376 43 417V432Q43 468 59 468Q69 468 74 465L491 288Q505 281 511 272T517 248V230Q517 215 511 206T491 190L74 12Q65 9 59 9Q42 9 42 45Z" />
<glyph unicode="?" glyph-name="question" horiz-adv-x="445" d="M146 215T136 221T126 242Q126 313 200 394L223 419Q258 457 274 479T290 523Q290 595 198 595Q172 595 151 589T104 571Q88 563 82 563Q72 563 60 576T39 607T30 635Q30 669 87 688T212 707Q311
707 368 659T425 533Q425 481 401 444T331 365Q284 322 263 297T235 240Q232 226 222 221T189 215H168Q146 215 136 221ZM111 -2T111 27V110Q111 138 164 138H191Q244 138 244 110V27Q244 -2 191 -2H164Q111 -2 111 27Z" />
<glyph unicode="@" glyph-name="at" horiz-adv-x="974" d="M645 707T720 667T836 553T878 382Q878 293 849 219T768 101T653 57Q607 57 578 78T543 128Q523 95 492 76T423 57Q364 57 325 102T285 238Q285 317 309 378T378 473T479 507Q512 507 539 493T584 461Q591
485 599 494T630 503H640Q678 503 678 478Q678 471 672 421Q647 182 647 167Q647 129 683 129Q718 129 749 164T798 257T817 382Q817 464 783 526T688 622T545 656Q438 656 349 601T207 450T155 239Q155 147 188 76T282 -34T421 -74Q464 -74 492 -68T546 -52Q567
-45 575 -45Q589 -45 589 -74Q589 -100 533 -112T421 -124Q325 -124 251 -79T136 49T95 239Q95 369 154 476T317 645T545 707Q645 707 720 667ZM555 345T567 395Q537 421 500 421Q444 421 418 375T392 245Q392 144 460 144Q484 144 507 164T547 224Q555 345 567
395Z" />
<glyph unicode="A" glyph-name="A" horiz-adv-x="613" d="M4 -2T4 18Q4 21 8 35L234 683Q240 702 285 702H329Q373 702 380 683L606 35Q609 25 609 18Q609 -2 561 -2H530Q486 -2 479 17L433 154H177L131 17Q124 -2 87 -2H59Q4 -2 4 18ZM395 266L322 486Q314 509
308 548H304Q303 542 299 522T289 486L214 266H395Z" />
<glyph unicode="B" glyph-name="B" horiz-adv-x="593" d="M101 0T92 9T83 37V663Q83 683 92 691T120 700H311Q428 700 485 653T543 523Q543 473 512 431T434 371L435 367Q464 362 496 340T550 283T572 202Q572 103 508 52T318 0H120Q101 0 92 9ZM300 413Q349 413
378 438T408 503Q408 589 300 589H214V413H300ZM329 112Q381 112 409 137T437 210Q437 254 405 277T313 301H214V112H329Z" />
<glyph unicode="C" glyph-name="C" horiz-adv-x="619" d="M208 -7T129 80T49 351Q49 707 380 707Q429 707 479 697T557 670Q582 656 582 640Q582 628 573 609T551 574T528 559Q525 559 504 569T452 587T378 595Q279 595 232 535T184 350Q184 227 231 166T376 105Q422
105 456 115T521 140Q537 148 543 148Q554 148 565 134T585 100T593 73Q593 50 559 31Q527 13 476 3T376 -7Q208 -7 129 80Z" />
<glyph unicode="D" glyph-name="D" horiz-adv-x="695" d="M101 0T92 9T83 37V663Q83 683 92 691T120 700H330Q479 700 562 612T646 350Q646 176 563 88T330 0H120Q101 0 92 9ZM327 112Q414 112 462 171T511 350Q511 469 463 528T327 588H215V112H327Z" />
<glyph unicode="E" glyph-name="E" horiz-adv-x="546" d="M102 0T93 9T84 37V663Q84 683 93 691T121 700H471Q485 700 491 690T498 657V631Q498 608 492 598T471 588H215V414H443Q457 414 463 404T470 371V345Q470 322 464 312T443 302H215V112H472Q486 112 492
102T499 69V43Q499 20 493 10T472 0H121Q102 0 93 9Z" />
<glyph unicode="F" glyph-name="F" horiz-adv-x="503" d="M83 -2T83 27V663Q83 683 92 691T120 700H444Q458 700 464 690T471 657V631Q471 608 465 598T444 588H214V387H433Q447 387 453 377T460 344V318Q460 295 454 285T433 275H214V27Q214 12 202 5T161 -2H136Q83
-2 83 27Z" />
<glyph unicode="G" glyph-name="G" horiz-adv-x="672" d="M583 379T592 371T601 343V69Q601 26 530 10T371 -7Q209 -7 129 80T49 349Q49 707 380 707Q426 707 474 698T554 674T586 640Q586 628 577 609T554 574T531 559Q528 559 507 569T453 587T378 595Q277 595
231 534T184 352Q184 105 373 105Q424 105 469 114V267H371Q357 267 351 277T344 310V336Q344 359 350 369T371 379H564Q583 379 592 371Z" />
<glyph unicode="H" glyph-name="H" horiz-adv-x="733" d="M84 -2T84 27V673Q84 702 137 702H163Q216 702 216 673V414H518V673Q518 702 571 702H597Q650 702 650 673V27Q650 -2 597 -2H571Q518 -2 518 27V301H216V27Q216 -2 163 -2H137Q84 -2 84 27Z" />
<glyph unicode="I" glyph-name="I" horiz-adv-x="283" d="M75 -3T75 27V673Q75 703 129 703H154Q207 703 207 673V27Q207 -3 154 -3H129Q75 -3 75 27Z" />
<glyph unicode="J" glyph-name="J" horiz-adv-x="402" d="M78 -7T40 1T2 34Q2 53 11 83T37 114Q40 114 57 110T95 105Q150 105 174 131T198 216V673Q198 703 251 703H277Q330 703 330 673V203Q330 103 279 48T118 -7Q78 -7 40 1Z" />
<glyph unicode="K" glyph-name="K" horiz-adv-x="576" d="M79 -2T79 27V673Q79 702 132 702H157Q211 702 211 673V392H215L413 685Q425 702 471 702H506Q530 702 542 698T554 688Q554 679 546 667L333 366L581 32Q589 20 589 13Q589 -2 537 -2H495Q448 -2 436
15L215 325H211V27Q211 -2 157 -2H132Q79 -2 79 27Z" />
<glyph unicode="L" glyph-name="L" horiz-adv-x="484" d="M101 0T92 9T83 37V673Q83 702 136 702H161Q189 702 201 695T214 673V112H451Q465 112 471 102T477 69V43Q477 21 471 11T451 0H120Q101 0 92 9Z" />
<glyph unicode="M" glyph-name="M" horiz-adv-x="843" d="M383 177T372 194L230 445Q218 462 207 486L203 485Q204 468 204 434V27Q204 -2 151 -2H129Q76 -2 76 27V673Q76 702 129 702H176Q219 702 232 678L406 371Q416 354 422 338Q426 351 438 372L613 678Q626
702 668 702H714Q767 702 767 673V27Q767 -2 714 -2H692Q639 -2 639 27V432Q639 466 640 483L636 484Q625 460 613 443L472 194Q461 177 438 177H406Q383 177 372 194Z" />
<glyph unicode="N" glyph-name="N" horiz-adv-x="719" d="M76 -2T76 27V673Q76 702 129 702H165Q187 702 200 697T222 678L478 287Q498 258 513 227L517 228Q515 251 515 296V673Q515 702 568 702H590Q643 702 643 673V27Q643 -2 590 -2H558Q537 -2 525 3T503
21L241 419Q219 450 206 478L202 477Q204 454 204 409V27Q204 -2 151 -2H129Q76 -2 76 27Z" />
<glyph unicode="O" glyph-name="O" horiz-adv-x="731" d="M213 -7T131 85T49 351Q49 524 131 615T366 707Q519 707 600 616T682 351Q682 177 601 85T366 -7Q213 -7 131 85ZM454 105T500 168T547 351Q547 471 501 533T366 595Q277 595 231 533T184 351Q184 231
230 168T366 105Q454 105 500 168Z" />
<glyph unicode="P" glyph-name="P" horiz-adv-x="570" d="M100 -2T88 5T75 27V663Q75 682 83 691T111 700H319Q411 700 481 656T551 489Q551 403 511 355T420 291T329 274H206V27Q206 -2 153 -2H128Q100 -2 88 5ZM318 387Q357 387 387 409T417 489Q417 544 386
566T313 588H206V387H318Z" />
<glyph unicode="Q" glyph-name="Q" horiz-adv-x="731" d="M635 -147T487 -88Q450 -73 390 -49T234 13Q143 48 96 133T49 349Q49 523 131 615T366 707Q519 707 600 615T682 349Q682 223 638 140T510 22V18L678 -39Q692 -44 692 -55Q692 -64 685 -87T666 -128T641
-147Q635 -147 487 -88ZM454 101T500 164T547 349Q547 469 501 532T366 595Q278 595 231 532T184 349Q184 228 230 165T366 101Q454 101 500 164Z" />
<glyph unicode="R" glyph-name="R" horiz-adv-x="610" d="M79 -2T79 27V663Q79 682 87 691T115 700H301Q426 700 486 654T547 516Q547 458 516 416T431 353V349Q453 341 473 314T509 246L594 34Q598 20 598 17Q598 -2 544 -2H514Q470 -2 462 17L384 213Q366 254
342 270T267 286H210V27Q210 -2 157 -2H132Q79 -2 79 27ZM318 399Q356 399 384 428T412 498Q412 541 385 564T311 588H210V399H318Z" />
<glyph unicode="S" glyph-name="S" horiz-adv-x="500" d="M186 -7T134 7T52 42Q27 61 27 76Q27 95 47 123T80 152Q86 152 105 141Q136 125 166 115T236 105Q281 105 311 126T342 191Q342 218 327 236T288 267T224 297L189 312Q143 332 112 354T61 415T41 511Q41
574 72 618T157 685T273 707Q318 707 360 697T425 670Q446 655 446 640Q446 622 429 594T399 565Q394 565 383 570T366 578Q326 595 281 595Q227 595 202 574T176 519Q176 490 191 472T228 442T293 414Q350 391 387 369T450 307T477 203Q477 98 413 46T253 -7Q186
-7 134 7Z" />
<glyph unicode="T" glyph-name="T" horiz-adv-x="549" d="M209 -2T209 27V588H39Q25 588 19 598T12 631V657Q12 680 18 690T39 700H510Q524 700 530 690T537 657V631Q537 608 531 598T510 588H341V27Q341 -2 288 -2H262Q209 -2 209 27Z" />
<glyph unicode="U" glyph-name="U" horiz-adv-x="712" d="M220 -7T146 55T72 231V673Q72 702 125 702H150Q203 702 203 673V236Q203 178 246 142T356 105Q423 105 466 142T510 236V673Q510 702 563 702H587Q640 702 640 673V231Q640 118 566 56T356 -7Q220 -7 146 55Z" />
<glyph unicode="V" glyph-name="V" horiz-adv-x="617" d="M243 -2T236 17L16 665Q12 679 12 682Q12 702 67 702H93Q137 702 145 678L286 249Q305 187 309 156H312Q318 194 336 249L478 678Q486 702 530 702H551Q605 702 605 682Q605 676 602 665L382 17Q375 -2
331 -2H286Q243 -2 236 17Z" />
<glyph unicode="W" glyph-name="W" horiz-adv-x="910" d="M186 -2T181 21L19 664Q17 676 17 679Q17 702 72 702H92Q144 702 150 676L240 308Q248 271 255 222T265 138H269Q282 219 300 297L396 682Q400 702 445 702H476Q520 702 525 682L616 308Q626 264 634 216T645
138H649Q660 216 679 297L771 676Q777 702 829 702H838Q893 702 893 679Q893 670 891 664L726 21Q721 -2 675 -2H613Q567 -2 562 21L481 348Q469 397 456 493H452Q437 392 429 360L344 21Q337 -2 293 -2H231Q186 -2 181 21Z" />
<glyph unicode="X" glyph-name="X" horiz-adv-x="611" d="M12 -2T12 16Q12 24 21 39L234 365L45 661Q36 675 36 684Q36 702 93 702H125Q167 702 179 684L309 479L445 685Q451 695 464 698T499 702H527Q584 702 584 684Q584 675 575 661L382 365L591 39Q599 25
599 16Q599 -2 542 -2H511Q469 -2 457 16L306 251L152 15Q144 5 132 2T97 -2H69Q12 -2 12 16Z" />
<glyph unicode="Y" glyph-name="Y" horiz-adv-x="559" d="M214 -2T214 27V344L12 660Q2 675 2 683Q2 702 60 702H92Q134 702 146 684L283 459L421 685Q433 702 476 702H502Q557 702 557 683Q557 674 548 660L345 341V27Q345 -2 292 -2H267Q214 -2 214 27Z" />
<glyph unicode="Z" glyph-name="Z" horiz-adv-x="616" d="M54 0T43 28T31 77Q31 83 33 87L394 588H88Q74 588 68 598T61 633V656Q61 679 67 689T88 700H545Q554 700 565 671T577 622Q577 615 573 608L215 112H550Q564 112 570 102T576 68V44Q576 21 570 11T550
0H65Q54 0 43 28Z" />
<glyph unicode="[" glyph-name="bracketleft" horiz-adv-x="291" d="M91 -138T83 -129T74 -101V731Q74 750 82 759T110 768H234Q248 768 254 760T261 732V720Q261 701 255 693T234 684H174V-54H234Q248 -54 254 -62T261 -91V-102Q261 -121 255 -129T234 -138H110Q91
-138 83 -129Z" />
<glyph unicode="\" glyph-name="backslash" horiz-adv-x="422" d="M338 -78T327 -74T310 -56L18 660Q9 678 9 686Q9 694 19 698T51 702H61Q83 702 95 697T113 678L405 -38Q413 -58 413 -62Q413 -78 372 -78H359Q338 -78 327 -74Z" />
<glyph unicode="]" glyph-name="bracketright" horiz-adv-x="291" d="M43 -138T37 -130T31 -102V-91Q31 -72 37 -63T57 -54H117V684H57Q43 684 37 692T31 720V732Q31 751 37 759T57 768H181Q201 768 209 760T218 731V-101Q218 -121 210 -129T181 -138H57Q43 -138
37 -130Z" />
<glyph unicode="^" glyph-name="asciicircum" horiz-adv-x="450" d="M41 319T41 336Q41 340 45 350L173 659Q183 685 212 685H239Q266 685 278 659L406 350Q409 343 409 336Q409 319 379 319H364Q329 319 318 346L225 572L132 346Q125 332 115 326T87 319H72Q41
319 41 336Z" />
<glyph unicode="_" glyph-name="underscore" horiz-adv-x="535" d="M-7 -138T-13 -129T-20 -98V-91Q-20 -70 -14 -61T7 -51H529Q543 -51 549 -60T555 -91V-98Q555 -119 549 -128T529 -138H7Q-7 -138 -13 -129Z" />
<glyph unicode="`" glyph-name="grave" horiz-adv-x="181" d="M124 573T108 579T78 601L22 663Q0 686 0 701Q0 711 11 714T51 718Q90 718 104 712T128 689L168 615Q170 611 175 602T181 588Q181 581 174 577T146 573Q124 573 108 579Z" />
<glyph unicode="a" glyph-name="a" horiz-adv-x="545" d="M124 -7T84 32T44 140Q44 324 347 325V363Q347 429 258 429Q221 429 193 421T144 403T120 393Q107 393 91 421T74 463Q74 479 99 494T169 520T264 530Q370 530 421 487T473 367V166Q473 98 479 67T485
28Q485 14 452 7T393 -1Q377 -1 370 13T360 45T355 68Q334 41 296 17T200 -7Q124 -7 84 32ZM269 94T298 112T347 160V236Q265 236 219 218T172 152Q172 125 188 110T234 94Q269 94 298 112Z" />
<glyph unicode="b" glyph-name="b" horiz-adv-x="569" d="M289 -7T253 13T191 68Q185 39 176 19Q171 7 161 3T131 -2H122Q73 -2 73 27V725Q73 753 126 753H145Q198 753 198 725V492Q249 530 315 530Q412 530 467 459T523 262Q523 179 499 119T432 26T333 -7Q289
-7 253 13ZM346 97T370 139T394 264Q394 428 287 428Q238 428 198 400V160Q219 131 244 114T299 97Q346 97 370 139Z" />
<glyph unicode="c" glyph-name="c" horiz-adv-x="485" d="M169 -7T107 58T45 260Q45 398 110 464T296 530Q356 530 406 513T456 469Q456 455 439 428T410 400Q409 400 395 406Q349 429 300 429Q237 429 207 389T176 263Q176 176 205 135T300 94Q332 94 354 100T403
118Q415 123 418 123Q432 123 448 97T464 56Q464 36 435 22T365 0T295 -7Q169 -7 107 58Z" />
<glyph unicode="d" glyph-name="d" horiz-adv-x="565" d="M179 -7T136 25T69 118T45 262Q45 387 101 458T254 530Q321 530 370 492V725Q370 753 423 753H443Q496 753 496 725V166Q496 98 502 67T508 28Q508 14 475 7T416 -1Q400 -1 393 13T383 45T378 68Q354 33
317 13T235 -7Q179 -7 136 25ZM325 97T370 160V400Q330 428 282 428Q174 428 174 264Q174 182 198 140T270 97Q325 97 370 160Z" />
<glyph unicode="e" glyph-name="e" horiz-adv-x="539" d="M173 -7T110 61T47 258Q47 396 109 463T286 530Q394 530 446 460T499 271Q499 260 481 240T454 219H178Q183 153 214 124T306 94Q360 94 416 122Q432 129 436 129Q449 129 465 103T482 62Q482 43 453 27T382
2T302 -7Q173 -7 110 61ZM374 308Q374 365 352 397T285 429Q192 429 178 308H374Z" />
<glyph unicode="f" glyph-name="f" horiz-adv-x="325" d="M89 -2T89 27V422H63Q49 422 43 432T37 465V480Q37 502 43 512T63 523H89V605Q89 686 127 722T229 759Q320 759 320 716Q320 704 312 679T292 653Q287 653 277 655T257 657Q235 657 225 646T215 603V523H278Q292
523 298 513T304 480V465Q304 443 298 433T278 422H215V27Q215 -2 162 -2H142Q89 -2 89 27Z" />
<glyph unicode="g" glyph-name="g" horiz-adv-x="546" d="M33 -212T33 -76Q33 -36 57 -5T123 43L124 46Q82 71 82 124Q82 182 140 216Q101 237 80 272T58 358Q58 442 114 486T266 530Q306 530 337 523H505Q519 523 525 513T532 480V465Q532 443 527 434T509 424Q498
424 480 426T451 432L450 429Q462 415 468 397T475 358Q475 277 420 234T273 190Q229 190 213 181T196 148Q196 124 224 115T311 98L353 92Q426 79 468 49T510 -49Q510 -124 443 -168T259 -212Q33 -212 33 -76ZM306 284T331 302T356 360Q356 399 331 417T266 436Q226
436 202 418T177 360Q177 320 201 302T266 284Q306 284 331 302ZM388 -112T388 -53Q388 -25 357 -15T251 4L210 9Q184 -1 169 -17T154 -55Q154 -83 182 -97T270 -112Q388 -112 388 -53Z" />
<glyph unicode="h" glyph-name="h" horiz-adv-x="565" d="M75 -2T75 27V725Q75 753 128 753H148Q201 753 201 725V462Q227 492 265 511T346 530Q417 530 458 492T500 368V27Q500 -2 447 -2H427Q374 -2 374 27V351Q374 386 355 405T297 425Q263 425 237 404T201
363V27Q201 -2 148 -2H128Q75 -2 75 27Z" />
<glyph unicode="i" glyph-name="i" horiz-adv-x="265" d="M70 -2T70 27V496Q70 525 123 525H143Q196 525 196 496V27Q196 -2 143 -2H123Q70 -2 70 27ZM326 581T326 610V682Q326 710 390 710Q453 710 453 682V610Q453 581 390 581Q326 581 326 610Z" />
<glyph unicode="j" glyph-name="j" horiz-adv-x="276" d="M18 -212T-4 -203T-27 -168Q-27 -151 -18 -129T4 -106Q8 -106 18 -108T39 -111Q60 -111 70 -99T81 -57V496Q81 525 134 525H154Q207 525 207 496V-58Q207 -136 167 -174T66 -212Q18 -212 -4 -203ZM336
581T336 610V682Q336 710 400 710Q463 710 463 682V610Q463 581 400 581Q336 581 336 610Z" />
<glyph unicode="k" glyph-name="k" horiz-adv-x="521" d="M505 20T505 13Q505 -2 452 -2H424Q401 -2 387 1T366 15L206 247H202V27Q202 -2 148 -2H129Q76 -2 76 27V725Q76 753 129 753H148Q202 753 202 725V311L206 310L351 508Q358 518 372 521T409 525H435Q459
525 471 521T483 511Q483 503 474 491L320 285L497 32Q505 20 505 13Z" />
<glyph unicode="l" glyph-name="l" horiz-adv-x="297" d="M146 -7T108 29T70 146V725Q70 753 123 753H142Q195 753 195 725V148Q195 119 206 107T238 94Q248 94 257 96T270 98Q282 98 290 73T298 35Q298 -7 210 -7Q146 -7 108 29Z" />
<glyph unicode="m" glyph-name="m" horiz-adv-x="848" d="M779 530T779 368V27Q779 -2 726 -2H706Q653 -2 653 27V351Q653 425 581 425Q549 425 525 406T487 363V27Q487 -2 434 -2H415Q387 -2 375 5T362 27V351Q362 425 290 425Q256 425 231 404T196 363V27Q196
-2 143 -2H123Q70 -2 70 27V355Q70 422 64 453T58 491Q58 505 91 512T150 520Q166 520 173 506T183 477T188 455Q214 487 253 508T338 530Q443 530 473 452Q500 485 541 507T629 530Q779 530 779 368Z" />
<glyph unicode="n" glyph-name="n" horiz-adv-x="557" d="M70 -2T70 27V355Q70 422 64 453T58 491Q58 505 91 512T150 520Q167 520 174 506T184 476T189 455Q215 488 255 509T340 530Q492 530 492 368V27Q492 12 480 5T439 -2H420Q367 -2 367 27V351Q367 425 292
425Q263 425 238 407T196 363V27Q196 -2 143 -2H123Q70 -2 70 27Z" />
<glyph unicode="o" glyph-name="o" horiz-adv-x="569" d="M169 -7T108 62T47 261Q47 392 108 461T286 530Q402 530 462 461T523 261Q523 130 463 62T286 -7Q169 -7 108 62ZM341 94T367 135T394 262Q394 346 368 387T285 429Q229 429 202 388T175 262Q175 177 202
136T285 94Q341 94 367 135Z" />
<glyph unicode="p" glyph-name="p" horiz-adv-x="573" d="M101 -207T89 -200T76 -178V355Q76 422 70 453T64 491Q64 505 97 512T155 520Q172 520 179 506T189 477T194 455Q219 490 255 510T336 530Q393 530 436 498T502 404T526 261Q526 136 471 65T318 -7Q252
-7 201 31V-178Q201 -207 148 -207H129Q101 -207 89 -200ZM397 95T397 259Q397 341 373 383T302 426Q273 426 248 409T201 363V123Q241 95 290 95Q397 95 397 259Z" />
<glyph unicode="q" glyph-name="q" horiz-adv-x="566" d="M373 -207T373 -178V31Q324 -7 257 -7Q159 -7 102 65T45 261Q45 344 69 404T137 497T238 530Q282 530 319 510T381 455Q386 482 393 504Q397 516 408 520T440 525H449Q499 525 499 496V-178Q499 -207 446
-207H426Q373 -207 373 -178ZM333 95T373 123V363Q328 426 273 426Q224 426 199 383T174 259Q174 178 201 137T284 95Q333 95 373 123Z" />
<glyph unicode="r" glyph-name="r" horiz-adv-x="366" d="M72 -2T72 27V355Q72 422 66 453T60 491Q60 505 93 512T152 520Q168 520 175 506T185 477T190 455Q236 530 301 530Q334 530 346 518T359 482Q359 462 351 435T331 408Q326 408 312 412T282 417Q253 417
230 398T198 363V27Q198 -2 144 -2H125Q72 -2 72 27Z" />
<glyph unicode="s" glyph-name="s" horiz-adv-x="413" d="M155 -8T118 1T56 25T32 58Q32 75 49 100T79 126Q83 126 101 117T139 100T185 93Q222 93 240 107T259 147Q259 172 239 186T172 219Q135 233 108 249T63 295T44 373Q44 445 92 488T220 531Q273 531 318
517T364 478Q364 461 351 435T325 408Q322 408 297 419T235 430Q205 430 188 418T170 383Q170 359 188 346T251 316Q312 295 348 260T385 157Q385 84 333 38T195 -8Q155 -8 118 1Z" />
<glyph unicode="t" glyph-name="t" horiz-adv-x="342" d="M164 -7T126 30T87 146V422H60Q46 422 40 432T33 465V480Q33 503 39 513T60 523H87L100 621Q105 650 146 650H170Q213 650 213 621V523H274Q288 523 294 513T301 480V465Q301 442 295 432T274 422H213V148Q213
118 223 106T255 94Q265 94 274 96T288 98Q300 98 308 73T316 35Q316 -7 228 -7Q164 -7 126 30Z" />
<glyph unicode="u" glyph-name="u" horiz-adv-x="557" d="M65 -7T65 155V496Q65 511 77 518T118 525H137Q190 525 190 496V172Q190 98 265 98Q294 98 319 116T361 160V496Q361 525 414 525H434Q487 525 487 496V166Q487 98 493 67T499 28Q499 14 466 7T407 -1Q391
-1 384 13T374 45T369 68Q342 35 302 14T217 -7Q65 -7 65 155Z" />
<glyph unicode="v" glyph-name="v" horiz-adv-x="485" d="M183 -2T176 17L16 488Q15 491 14 495T13 505Q13 525 67 525H91Q134 525 141 506L209 292Q231 224 245 145H249Q261 223 286 298L352 506Q359 525 403 525H420Q473 525 473 505Q473 499 470 488L310 17Q303
-2 259 -2H226Q183 -2 176 17Z" />
<glyph unicode="w" glyph-name="w" horiz-adv-x="747" d="M158 -2T154 17L26 485Q23 494 23 502Q23 525 79 525Q111 525 126 521T144 506L212 234Q220 203 230 140H234Q243 195 254 236L321 505Q327 525 370 525H389Q409 525 422 520T438 505L506 233Q518 188
525 137H527Q538 206 546 234L614 506Q618 525 667 525Q721 525 721 502Q721 493 719 487L595 17Q593 8 580 3T546 -2H503Q458 -2 454 17L389 271Q380 313 375 353H372Q369 319 359 271L296 17Q294 8 280 3T246 -2H203Q158 -2 154 17Z" />
<glyph unicode="x" glyph-name="x" horiz-adv-x="485" d="M10 -2T10 16Q10 23 20 38L175 266L30 484Q20 501 20 507Q20 525 77 525H101Q124 525 136 522T156 507L229 393L246 365L264 394L338 508Q345 518 358 521T394 525H414Q470 525 470 507Q470 500 460 485L312
267L465 39Q475 22 475 16Q475 -2 418 -2H394Q371 -2 359 1T339 16L257 143Q248 156 241 168L226 143L142 15Q135 5 122 2T87 -2H66Q10 -2 10 16Z" />
<glyph unicode="y" glyph-name="y" horiz-adv-x="481" d="M472 525T472 505Q472 499 469 488L230 -186Q222 -207 177 -207H161Q136 -207 123 -202T110 -187Q110 -181 115 -170L185 11L16 488Q15 491 14 495T13 505Q13 525 68 525H91Q135 525 142 506L216 291Q227
256 245 177H248L257 213Q269 263 278 291L351 506Q358 525 402 525H419Q472 525 472 505Z" />
<glyph unicode="z" glyph-name="z" horiz-adv-x="489" d="M49 0T40 24T30 67Q30 76 33 80L285 422H74Q60 422 54 432T48 465V480Q48 502 54 512T74 523H427Q435 523 444 499T453 455Q453 447 451 441L200 101H430Q444 101 450 91T456 58V43Q456 21 450 11T430
0H57Q49 0 40 24Z" />
<glyph unicode="{" glyph-name="braceleft" horiz-adv-x="274" d="M149 -138T122 -108T95 -22V146Q95 197 85 224T46 264Q32 272 26 282T19 309V321Q19 338 25 348T46 366Q74 378 84 405T95 484V652Q95 707 122 737T186 768H229Q243 768 249 760T256 732V721Q256
685 232 685H226Q209 685 202 675T195 640V468Q195 411 174 372T123 315Q152 299 173 259T195 162V-10Q195 -33 201 -44T222 -55H231Q244 -56 250 -64T256 -91V-102Q256 -121 250 -129T229 -138H186Q149 -138 122 -108Z" />
<glyph unicode="|" glyph-name="bar" horiz-adv-x="250" d="M97 -139T88 -132T78 -111V741Q78 755 87 762T119 769H132Q154 769 163 762T173 741V-111Q173 -125 164 -132T132 -139H119Q97 -139 88 -132Z" />
<glyph unicode="}" glyph-name="braceright" horiz-adv-x="274" d="M35 -138T29 -130T23 -102V-91Q23 -72 29 -64T48 -55H56Q71 -55 77 -44T84 -10V162Q84 220 105 259T155 315Q126 332 105 371T84 468V640Q84 664 78 674T54 685H46Q34 685 29 693T23 721V732Q23
751 29 759T49 768H92Q130 768 157 738T184 652V484Q184 433 194 406T232 366Q247 358 253 348T260 321V309Q260 292 254 282T232 264Q205 252 195 225T184 146V-22Q184 -77 157 -107T92 -138H49Q35 -138 29 -130Z" />
<glyph unicode="~" glyph-name="asciitilde" horiz-adv-x="560" d="M94 210T83 216T71 231Q71 242 76 257Q88 287 116 308T185 330Q211 330 234 325T292 309Q322 299 342 295T383 290Q403 290 415 298T439 319Q450 332 456 332Q464 332 476 325T489 310Q489 300
484 285Q469 251 442 232T377 212Q349 212 324 218T264 235Q243 242 222 247T185 253Q163 253 149 245T120 222Q108 210 103 210Q94 210 83 216Z" />
<glyph unicode="&#xa0;" glyph-name="uni00A0" horiz-adv-x="240" />
<glyph unicode="&#xa1;" glyph-name="exclamdown" horiz-adv-x="294" d="M83 385T83 413V496Q83 525 136 525H163Q216 525 216 496V413Q216 385 163 385H136Q83 385 83 413ZM58 -180T58 -154Q58 -124 100 279Q102 294 111 300T144 307H155Q179 307 189 300T199
279V-151Q199 -180 146 -180H111Q58 -180 58 -154Z" />
<glyph unicode="&#xa2;" glyph-name="cent" horiz-adv-x="470" d="M449 33T410 17T321 -4V-55Q321 -78 295 -78H290Q264 -78 264 -55V-7Q146 -3 88 62T30 260Q30 520 264 530V565Q264 588 290 588H295Q321 588 321 565V528Q371 522 406 507T441 469Q441 455 424
428T395 400Q392 400 388 402T379 406Q346 421 321 426V97Q350 102 388 118Q400 123 403 123Q416 123 432 97T449 56Q449 33 410 17ZM161 183T185 142T264 95V428Q212 421 187 381T161 263Q161 183 185 142Z" />
<glyph unicode="&#xa3;" glyph-name="sterling" horiz-adv-x="530" d="M71 0T63 9T55 37V55Q55 66 62 74T86 94Q109 110 121 125T134 169V321H94Q80 321 74 331T67 364V379Q67 402 73 412T94 422H134V501Q134 602 189 654T356 707Q463 707 463 667Q463 647 452
624T429 601Q425 601 407 605T365 609Q310 609 284 584T258 506V422H380Q394 422 400 412T406 379V364Q406 342 400 332T380 321H258V250Q258 189 246 155T212 101H455Q469 101 475 91T481 58V43Q481 21 475 11T455 0H88Q71 0 63 9Z" />
<glyph unicode="&#xa4;" glyph-name="currency" horiz-adv-x="550" d="M112 97T101 108L81 128Q71 138 71 150Q71 161 82 174L105 197Q75 243 75 300Q75 358 106 406L80 432Q68 444 68 456Q68 467 78 477L100 499Q111 510 122 510Q134 510 146 498L172 471Q220
500 275 500Q330 500 378 471L405 498Q418 509 429 509Q441 509 452 498L472 478Q483 467 483 456Q483 444 471 432L444 404Q474 357 474 300Q474 246 445 198L469 174Q481 162 481 150Q481 139 470 128L450 108Q439 97 427 97Q414 97 403 108L380 132Q332 101
275 101Q218 101 170 130L148 108Q137 97 124 97Q112 97 101 108ZM318 197T348 227T379 300Q379 343 349 373T275 404Q232 404 202 374T171 300Q171 257 201 227T275 197Q318 197 348 227Z" />
<glyph unicode="&#xa5;" glyph-name="yen" horiz-adv-x="600" d="M578 674T569 660L411 412H510Q524 412 530 405T536 382V370Q536 339 510 339H366V266H510Q524 266 530 259T536 236V223Q536 207 530 200T510 193H366V27Q366 -2 313 -2H288Q235 -2 235 27V193H90Q76
193 70 200T64 223V236Q64 252 70 259T90 266H235V340H90Q76 340 70 347T64 370V382Q64 398 70 405T90 412H192L33 660Q23 675 23 683Q23 702 81 702H113Q155 702 167 684L304 459L442 685Q454 702 497 702H523Q578 702 578 683Q578 674 569 660Z" />
<glyph unicode="&#xa6;" glyph-name="brokenbar" horiz-adv-x="250" d="M78 388T78 417V741Q78 770 119 770H132Q173 770 173 741V417Q173 388 132 388H119Q78 388 78 417ZM78 -140T78 -111V213Q78 242 119 242H132Q173 242 173 213V-111Q173 -140 132 -140H119Q78
-140 78 -111Z" />
<glyph unicode="&#xa7;" glyph-name="section" horiz-adv-x="429" d="M160 -7T113 6T65 49Q65 62 78 89T104 116Q106 116 131 105T191 94Q223 94 239 105T255 135Q255 157 237 169T178 194L158 201Q106 222 76 255T45 353Q45 419 87 464Q49 499 49 557Q49 629
97 668T225 707Q273 707 320 694T367 652Q367 639 354 612T328 585Q326 585 301 596T241 607Q209 607 193 596T177 566Q177 545 194 534T250 507Q255 506 273 499Q325 479 356 446T387 348Q387 280 344 237Q382 201 382 144Q382 72 334 33T207 -7Q160 -7 113 6ZM272
303T272 338Q272 371 250 387T184 418Q159 398 159 364Q159 330 181 314T247 283Q272 303 272 338Z" />
<glyph unicode="&#xa8;" glyph-name="dieresis" horiz-adv-x="282" d="M26 587T13 594T0 615V676Q0 691 13 698T56 705Q85 705 98 698T112 676V615Q112 601 99 594T56 587Q26 587 13 594ZM197 587T184 594T171 615V676Q171 691 184 698T227 705Q256 705 269 698T282
676V615Q282 601 269 594T227 587Q197 587 184 594Z" />
<glyph unicode="&#xa9;" glyph-name="copyright" horiz-adv-x="739" d="M272 -7T190 41T59 171T11 351Q11 449 59 531T189 661T370 709Q467 709 549 661T680 531T728 351Q728 254 680 172T550 41T370 -7Q272 -7 190 41ZM451 52T520 92T629 201T670 351Q670 433
630 501T520 610T370 650Q289 650 220 610T111 502T70 351Q70 270 110 202T220 93T370 52Q451 52 520 92ZM288 147T243 197T197 352Q197 555 386 555Q428 555 465 544T502 517Q502 506 491 488T471 470Q469 470 448 481T385 492Q328 492 301 458T273 352Q273 210
384 210Q425 210 451 223T479 236Q488 236 498 219T508 192Q508 173 468 160T384 147Q288 147 243 197Z" />
<glyph unicode="&#xaa;" glyph-name="ordfeminine" horiz-adv-x="319" d="M81 440T62 460T42 514Q42 605 190 605V623Q190 638 181 645T149 652Q121 652 102 645T81 637Q74 637 66 651T58 674Q58 686 86 696T155 707Q206 707 232 685T258 626V526Q258 491 261
476T264 457Q264 449 247 446T216 442Q207 442 204 449T199 465T196 476Q186 463 167 452T118 440Q81 440 62 460ZM153 498T167 506T190 526V558Q153 558 132 550T110 521Q110 498 138 498Q153 498 167 506Z" />
<glyph unicode="&#xab;" glyph-name="guillemotleft" horiz-adv-x="470" d="M183 51T171 66L43 220Q35 230 32 238T28 258Q28 280 43 296L171 451Q183 464 196 464Q209 464 228 450T247 421Q247 411 238 399L128 258L238 116Q247 106 247 95Q247 82 229 67T196
51Q183 51 171 66ZM374 51T360 66L232 220Q224 230 221 238T217 258Q217 280 232 296L360 451Q373 464 385 464Q399 464 417 450T436 421Q436 412 428 399L317 258L428 116Q436 105 436 95Q436 82 418 67T385 51Q374 51 360 66Z" />
<glyph unicode="&#xac;" glyph-name="logicalnot" horiz-adv-x="560" d="M425 74T425 102V250H60Q46 250 40 260T33 293V302Q33 325 39 335T60 345H490Q509 345 518 337T527 309V102Q527 74 483 74H468Q425 74 425 102Z" />
<glyph unicode="&#xad;" glyph-name="uni00AD" horiz-adv-x="320" d="M46 218T40 228T34 261V269Q34 292 40 302T60 312H260Q274 312 280 302T286 269V261Q286 239 280 229T260 218H60Q46 218 40 228Z" />
<glyph unicode="&#xae;" glyph-name="registered" horiz-adv-x="739" d="M272 -7T190 41T59 171T11 351Q11 449 59 531T189 661T370 709Q467 709 549 661T680 531T728 351Q728 254 680 172T550 41T370 -7Q272 -7 190 41ZM451 52T520 92T629 201T670 351Q670 433
630 501T520 610T370 650Q289 650 220 610T111 502T70 351Q70 270 110 202T220 93T370 52Q451 52 520 92ZM245 152T245 168V531Q245 542 250 547T266 552H371Q443 552 477 526T511 447Q511 414 494 391T445 354V351Q471 340 490 293L538 173Q540 168 540 163Q540
152 510 152H493Q469 152 463 163L419 275Q409 298 395 307T352 316H319V168Q319 152 289 152H276Q245 152 245 168ZM381 380Q403 380 419 397T435 437Q435 461 420 475T377 489H319V380H381Z" />
<glyph unicode="&#xaf;" glyph-name="overscore" horiz-adv-x="287" d="M13 602T7 610T0 639V652Q0 672 6 680T27 689H260Q274 689 280 681T287 652V639Q287 619 281 611T260 602H27Q13 602 7 610Z" />
<glyph unicode="&#xb0;" glyph-name="degree" horiz-adv-x="345" d="M136 442T106 459T58 507T40 574Q40 610 58 640T106 689T172 707Q208 707 238 689T287 641T305 574Q305 538 287 508T239 460T172 442Q136 442 106 459ZM202 498T224 520T246 574Q246 605 224
628T172 651Q142 651 121 629T99 574Q99 543 120 521T172 498Q202 498 224 520Z" />
<glyph unicode="&#xb1;" glyph-name="plusminus" horiz-adv-x="560" d="M252 138T242 144T231 164V317H70Q56 317 50 327T43 360V367Q43 390 49 400T70 410H231V573Q231 587 241 593T274 600H285Q308 600 318 594T328 573V410H490Q504 410 510 400T517 367V360Q517
337 511 327T490 317H328V164Q328 150 318 144T285 138H274Q252 138 242 144ZM56 0T50 10T43 42V51Q43 73 49 83T69 94H491Q505 94 511 84T517 51V42Q517 20 511 10T491 0H69Q56 0 50 10Z" />
<glyph unicode="&#xb2;" glyph-name="uni00B2" horiz-adv-x="310" d="M31 350T26 364T21 391Q21 400 28 407L172 586Q188 607 194 621T200 652Q200 676 184 689T140 703Q121 703 108 698T81 686T64 678Q54 678 45 690T36 713Q36 735 72 749T149 763Q208 763 241
734T275 654Q275 624 265 602T234 552L119 409H265Q281 409 281 384V375Q281 350 265 350H38Q31 350 26 364Z" />
<glyph unicode="&#xb3;" glyph-name="uni00B3" horiz-adv-x="310" d="M100 344T61 355T21 387Q21 396 30 411T47 426Q51 426 76 415T135 403Q163 403 182 419T202 469Q202 503 184 518T127 534H109Q101 534 98 540T94 560V569Q94 583 97 588T109 594H123Q155 594
172 611T189 653Q189 675 176 689T134 703Q102 703 83 694T59 685Q52 685 43 699T33 724Q33 742 67 752T144 763Q199 763 231 736T264 660Q264 630 249 608T207 576V574Q240 563 258 535T277 468Q277 408 240 376T145 344Q100 344 61 355Z" />
<glyph unicode="&#xb4;" glyph-name="acute" horiz-adv-x="181" d="M0 573T0 588Q0 592 4 600T12 615L52 689Q62 706 76 712T129 718Q157 718 169 715T181 701Q181 688 159 663L103 601Q89 585 73 579T34 573Q0 573 0 588Z" />
<glyph unicode="&#xb5;" glyph-name="uni00B5" horiz-adv-x="566" d="M494 98T500 67T506 28Q506 14 473 7T414 -1Q398 -1 391 13T381 45T376 68Q349 36 310 15T230 -7Q210 -7 185 0Q193 -40 195 -80T198 -178Q198 -207 145 -207H125Q72 -207 72 -178V496Q72 525
125 525H145Q198 525 198 496V172Q198 98 272 98Q302 98 327 116T368 160V496Q368 525 421 525H441Q494 525 494 496V166Q494 98 500 67Z" />
<glyph unicode="&#xb6;" glyph-name="paragraph" horiz-adv-x="515" d="M256 -172T250 -165T243 -144V247Q187 253 141 285T68 366T41 473Q41 538 71 589T154 670T268 700H474Q488 700 494 694T501 671V665Q501 651 495 645T474 638H445V-144Q445 -172 417 -172H411Q396
-172 390 -165T383 -144V638H305V-144Q305 -172 277 -172H271Q256 -172 250 -165Z" />
<glyph unicode="&#xb7;" glyph-name="middot" horiz-adv-x="267" d="M107 296T89 314T70 359Q70 386 88 404T134 423Q160 423 178 405T197 359Q197 333 179 315T134 296Q107 296 89 314Z" />
<glyph unicode="&#xb8;" glyph-name="cedilla" horiz-adv-x="243" d="M198 -54T220 -73T243 -122Q243 -168 212 -189T125 -211Q81 -211 41 -198T0 -164Q0 -149 8 -139T25 -129Q33 -129 52 -136Q74 -143 89 -146T123 -150Q165 -150 165 -123Q165 -110 155 -104T122
-91Q94 -85 94 -75Q94 -66 117 7H173L158 -49Q198 -54 220 -73Z" />
<glyph unicode="&#xb9;" glyph-name="uni00B9" horiz-adv-x="310" d="M131 349T131 366V692L54 678Q45 678 41 692T37 721Q37 733 50 736L183 762Q190 762 197 758T204 749V366Q204 358 196 354T173 349H161Q131 349 131 366Z" />
<glyph unicode="&#xba;" glyph-name="ordmasculine" horiz-adv-x="337" d="M111 441T81 475T50 574Q50 639 80 673T169 707Q227 707 257 673T287 574Q287 509 257 475T169 441Q111 441 81 475ZM217 497T217 574Q217 651 169 651Q144 651 132 632T120 574Q120 497
169 497Q217 497 217 574Z" />
<glyph unicode="&#xbb;" glyph-name="guillemotright" horiz-adv-x="470" d="M70 51T52 66T34 95Q34 106 43 116L153 258L43 399Q34 411 34 421Q34 436 52 450T85 464Q98 464 110 451L238 296Q253 280 253 258Q253 247 250 239T238 220L110 66Q98 51 85 51Q70
51 52 66ZM259 51T242 66T224 95Q224 105 232 116L343 258L232 399Q224 412 224 421Q224 436 242 450T274 464Q289 464 299 451L428 296Q442 279 442 258Q442 238 428 220L299 66Q289 51 274 51Q259 51 242 66Z" />
<glyph unicode="&#xbc;" glyph-name="onequarter" horiz-adv-x="750" d="M364 289T364 306V632L287 618Q278 618 274 632T270 661Q270 673 283 676L416 702Q423 702 430 698T437 689V306Q437 298 429 294T406 289H394Q364 289 364 306ZM604 -1T604 15V87H447Q439
87 432 103T425 130Q425 135 429 141L605 398Q609 404 616 406T634 408H648Q677 408 677 391V146H705Q720 146 720 121V112Q720 87 705 87H677V15Q677 -1 648 -1H633Q604 -1 604 15ZM605 146V254Q605 291 613 312L610 313L497 146H605ZM133 -1T133 9Q133 13 138
23L515 681Q522 692 529 696T551 701H566Q587 701 587 691Q587 686 582 678L207 22Q199 10 191 5T169 -1H151Q133 -1 133 9Z" />
<glyph unicode="&#xbd;" glyph-name="onehalf" horiz-adv-x="750" d="M364 289T364 306V632L287 618Q278 618 274 632T270 661Q270 673 283 676L416 702Q423 702 430 698T437 689V306Q437 298 429 294T406 289H394Q364 289 364 306ZM451 0T446 14T441 41Q441 50
448 57L592 236Q608 257 614 271T620 302Q620 326 604 339T560 353Q541 353 528 348T501 336T484 328Q474 328 465 340T456 363Q456 385 492 399T569 413Q628 413 661 384T695 304Q695 274 685 252T654 202L539 59H685Q701 59 701 34V25Q701 0 685 0H458Q451 0
446 14ZM108 -1T108 9Q108 13 113 23L490 681Q497 692 504 696T526 701H541Q562 701 562 691Q562 686 557 678L182 22Q174 10 166 5T144 -1H126Q108 -1 108 9Z" />
<glyph unicode="&#xbe;" glyph-name="threequarters" horiz-adv-x="750" d="M346 284T307 295T267 327Q267 336 276 351T293 366Q297 366 322 355T381 343Q409 343 428 359T448 409Q448 443 430 458T373 474H355Q347 474 344 480T340 500V509Q340 523 343 528T355
534H369Q401 534 418 551T435 593Q435 615 422 629T380 643Q348 643 329 634T305 625Q298 625 289 639T279 664Q279 682 313 692T390 703Q445 703 477 676T510 600Q510 570 495 548T453 516V514Q486 503 504 475T523 408Q523 348 486 316T391 284Q346 284 307 295ZM604
-1T604 15V87H447Q439 87 432 103T425 130Q425 135 429 141L605 398Q609 404 616 406T634 408H648Q677 408 677 391V146H705Q720 146 720 121V112Q720 87 705 87H677V15Q677 -1 648 -1H633Q604 -1 604 15ZM605 146V254Q605 291 613 312L610 313L497 146H605ZM162
-1T162 9Q162 13 167 23L544 681Q551 692 558 696T580 701H595Q616 701 616 691Q616 686 611 678L236 22Q228 10 220 5T198 -1H180Q162 -1 162 9Z" />
<glyph unicode="&#xbf;" glyph-name="questiondown" horiz-adv-x="425" d="M341 525T341 496V413Q341 385 288 385H261Q208 385 208 413V496Q208 525 261 525H288Q341 525 341 496ZM306 308T316 302T326 281Q326 210 252 129L232 108Q195 68 179 45T162 0Q162
-72 254 -72Q280 -72 301 -66T348 -48Q364 -40 370 -40Q380 -40 392 -53T413 -84T422 -112Q422 -146 365 -165T240 -184Q141 -184 84 -136T27 -10Q27 42 51 79T121 158Q127 164 154 189T197 237T217 283Q219 297 229 302T263 308H284Q306 308 316 302Z" />
<glyph unicode="&#xc0;" glyph-name="Agrave" horiz-adv-x="613" d="M4 -2T4 18Q4 21 8 35L234 683Q240 702 285 702H329Q373 702 380 683L606 35Q609 25 609 18Q609 -2 561 -2H530Q486 -2 479 17L433 154H177L131 17Q124 -2 87 -2H59Q4 -2 4 18ZM395 266L322
486Q314 509 308 548H304Q303 542 299 522T289 486L214 266H395ZM337 750T323 754T290 770L215 818Q196 830 189 838T182 853Q182 863 198 867T247 871Q280 871 297 866T329 844L383 785Q396 772 396 763Q396 750 362 750Q337 750 323 754Z" />
<glyph unicode="&#xc1;" glyph-name="Aacute" horiz-adv-x="613" d="M4 -2T4 18Q4 21 8 35L234 683Q240 702 285 702H329Q373 702 380 683L606 35Q609 25 609 18Q609 -2 561 -2H530Q486 -2 479 17L433 154H177L131 17Q124 -2 87 -2H59Q4 -2 4 18ZM395 266L322
486Q314 509 308 548H304Q303 542 299 522T289 486L214 266H395ZM217 750T217 763Q217 772 229 785L283 844Q298 860 315 865T366 871Q399 871 415 867T431 853Q431 846 424 838T397 818L322 770Q305 758 291 754T251 750Q217 750 217 763Z" />
<glyph unicode="&#xc2;" glyph-name="Acircumflex" horiz-adv-x="613" d="M4 -2T4 18Q4 21 8 35L234 683Q240 702 285 702H329Q373 702 380 683L606 35Q609 25 609 18Q609 -2 561 -2H530Q486 -2 479 17L433 154H177L131 17Q124 -2 87 -2H59Q4 -2 4 18ZM395 266L322
486Q314 509 308 548H304Q303 542 299 522T289 486L214 266H395ZM179 737T172 739T165 747Q165 755 184 775L238 835Q250 849 262 853T296 858H316Q339 858 350 854T375 835L428 776Q447 755 447 747Q447 741 441 739T413 737Q386 737 361 752L306 786L252 753Q225
737 199 737Q179 737 172 739Z" />
<glyph unicode="&#xc3;" glyph-name="Atilde" horiz-adv-x="613" d="M4 -2T4 18Q4 21 8 35L234 683Q240 702 285 702H329Q373 702 380 683L606 35Q609 25 609 18Q609 -2 561 -2H530Q486 -2 479 17L433 154H177L131 17Q124 -2 87 -2H59Q4 -2 4 18ZM395 266L322
486Q314 509 308 548H304Q303 542 299 522T289 486L214 266H395ZM154 752T140 760T126 778Q126 786 132 800Q145 830 171 849T234 868Q251 868 268 864T317 849Q362 834 381 834Q395 834 405 840T427 856Q442 869 449 869Q460 869 473 859T487 839Q487 831 480
820Q465 792 440 773T379 754Q361 754 342 759T293 773Q248 788 229 788Q214 788 205 782T184 765Q173 752 165 752Q154 752 140 760Z" />
<glyph unicode="&#xc4;" glyph-name="Adieresis" horiz-adv-x="613" d="M4 -2T4 18Q4 21 8 35L234 683Q240 702 285 702H329Q373 702 380 683L606 35Q609 25 609 18Q609 -2 561 -2H530Q486 -2 479 17L433 154H177L131 17Q124 -2 87 -2H59Q4 -2 4 18ZM395 266L322
486Q314 509 308 548H304Q303 542 299 522T289 486L214 266H395ZM189 750T176 757T162 779V843Q162 857 175 864T219 871Q249 871 262 864T276 843V779Q276 764 263 757T219 750Q189 750 176 757ZM366 750T353 757T339 779V843Q339 857 352 864T396 871Q426 871
439 864T453 843V779Q453 764 440 757T396 750Q366 750 353 757Z" />
<glyph unicode="&#xc5;" glyph-name="Aring" horiz-adv-x="613" d="M4 -2T4 18Q4 21 8 35L234 683Q240 702 285 702H329Q373 702 380 683L606 35Q609 25 609 18Q609 -2 561 -2H530Q486 -2 479 17L433 154H177L131 17Q124 -2 87 -2H59Q4 -2 4 18ZM395 266L322 486Q314
509 308 548H304Q303 542 299 522T289 486L214 266H395ZM266 728T239 755T212 822Q212 862 239 889T306 917Q346 917 373 890T401 822Q401 782 374 755T306 728Q266 728 239 755ZM322 785T332 795T343 821Q343 837 333 847T306 858Q291 858 281 848T270 821Q270
806 280 796T306 785Q322 785 332 795Z" />
<glyph unicode="&#xc6;" glyph-name="AE" horiz-adv-x="915" d="M-2 -2T-2 18Q-2 28 2 36L323 673Q330 687 340 693T366 700H824Q838 700 844 690T850 657V631Q850 609 844 599T824 588H491L527 414H796Q810 414 816 404T822 371V345Q822 323 816 313T796 302H549L588
112H825Q839 112 845 102T851 69V43Q851 21 845 11T825 0H509Q493 0 485 7T474 30L449 154H188L121 17Q111 -2 77 -2H51Q-2 -2 -2 18ZM427 266L383 488L382 562H379L353 489L244 266H427Z" />
<glyph unicode="&#xc7;" glyph-name="Ccedilla" horiz-adv-x="619" d="M554 148T565 134T585 100T593 73Q593 50 559 31Q527 13 476 3T376 -7H374L362 -49Q403 -53 425 -72T447 -122Q447 -168 416 -189T330 -211Q286 -211 245 -198T204 -164Q204 -149 212 -139T229
-129Q236 -129 257 -136Q299 -150 327 -150Q369 -150 369 -123Q369 -110 359 -104T326 -91Q298 -85 298 -75Q298 -67 318 -4Q181 10 115 97T49 351Q49 707 380 707Q429 707 479 697T557 670Q582 656 582 640Q582 628 573 609T551 574T528 559Q525 559 504 569T452
587T378 595Q279 595 232 535T184 350Q184 227 231 166T376 105Q422 105 456 115T521 140Q537 148 543 148Q554 148 565 134Z" />
<glyph unicode="&#xc8;" glyph-name="Egrave" horiz-adv-x="546" d="M102 0T93 9T84 37V663Q84 683 93 691T121 700H471Q485 700 491 690T498 657V631Q498 608 492 598T471 588H215V414H443Q457 414 463 404T470 371V345Q470 322 464 312T443 302H215V112H472Q486
112 492 102T499 69V43Q499 20 493 10T472 0H121Q102 0 93 9ZM320 750T306 754T273 770L198 818Q179 830 172 838T165 853Q165 863 181 867T230 871Q263 871 280 866T312 844L366 785Q379 772 379 763Q379 750 345 750Q320 750 306 754Z" />
<glyph unicode="&#xc9;" glyph-name="Eacute" horiz-adv-x="546" d="M102 0T93 9T84 37V663Q84 683 93 691T121 700H471Q485 700 491 690T498 657V631Q498 608 492 598T471 588H215V414H443Q457 414 463 404T470 371V345Q470 322 464 312T443 302H215V112H472Q486
112 492 102T499 69V43Q499 20 493 10T472 0H121Q102 0 93 9ZM200 750T200 763Q200 772 212 785L266 844Q281 860 298 865T349 871Q382 871 398 867T414 853Q414 846 407 838T380 818L305 770Q288 758 274 754T234 750Q200 750 200 763Z" />
<glyph unicode="&#xca;" glyph-name="Ecircumflex" horiz-adv-x="546" d="M102 0T93 9T84 37V663Q84 683 93 691T121 700H471Q485 700 491 690T498 657V631Q498 608 492 598T471 588H215V414H443Q457 414 463 404T470 371V345Q470 322 464 312T443 302H215V112H472Q486
112 492 102T499 69V43Q499 20 493 10T472 0H121Q102 0 93 9ZM162 737T155 739T148 747Q148 755 167 775L221 835Q233 849 245 853T279 858H299Q322 858 333 854T358 835L411 776Q430 755 430 747Q430 741 424 739T396 737Q369 737 344 752L289 786L235 753Q208
737 182 737Q162 737 155 739Z" />
<glyph unicode="&#xcb;" glyph-name="Edieresis" horiz-adv-x="546" d="M102 0T93 9T84 37V663Q84 683 93 691T121 700H471Q485 700 491 690T498 657V631Q498 608 492 598T471 588H215V414H443Q457 414 463 404T470 371V345Q470 322 464 312T443 302H215V112H472Q486
112 492 102T499 69V43Q499 20 493 10T472 0H121Q102 0 93 9ZM171 750T158 757T144 779V843Q144 857 157 864T201 871Q231 871 244 864T258 843V779Q258 764 245 757T201 750Q171 750 158 757ZM348 750T335 757T321 779V843Q321 857 334 864T378 871Q408 871 421
864T435 843V779Q435 764 422 757T378 750Q348 750 335 757Z" />
<glyph unicode="&#xcc;" glyph-name="Igrave" horiz-adv-x="283" d="M75 -3T75 27V673Q75 703 129 703H154Q207 703 207 673V27Q207 -3 154 -3H129Q75 -3 75 27ZM172 750T158 754T125 770L50 818Q31 830 24 838T17 853Q17 863 33 867T82 871Q115 871 132 866T164
844L218 785Q231 772 231 763Q231 750 197 750Q172 750 158 754Z" />
<glyph unicode="&#xcd;" glyph-name="Iacute" horiz-adv-x="283" d="M75 -3T75 27V673Q75 703 129 703H154Q207 703 207 673V27Q207 -3 154 -3H129Q75 -3 75 27ZM51 750T51 763Q51 772 63 785L117 844Q132 860 149 865T200 871Q233 871 249 867T265 853Q265 846
258 838T231 818L156 770Q139 758 125 754T85 750Q51 750 51 763Z" />
<glyph unicode="&#xce;" glyph-name="Icircumflex" horiz-adv-x="283" d="M75 -3T75 27V673Q75 703 129 703H154Q207 703 207 673V27Q207 -3 154 -3H129Q75 -3 75 27ZM14 737T7 739T0 747Q0 755 19 775L73 835Q85 849 97 853T131 858H151Q174 858 185 854T210
835L263 776Q282 755 282 747Q282 741 276 739T248 737Q221 737 196 752L141 786L87 753Q60 737 34 737Q14 737 7 739Z" />
<glyph unicode="&#xcf;" glyph-name="Idieresis" horiz-adv-x="283" d="M75 -3T75 27V673Q75 703 129 703H154Q207 703 207 673V27Q207 -3 154 -3H129Q75 -3 75 27ZM23 750T10 757T-4 779V843Q-4 857 9 864T53 871Q83 871 96 864T110 843V779Q110 764 97 757T53
750Q23 750 10 757ZM200 750T187 757T173 779V843Q173 857 186 864T230 871Q260 871 273 864T287 843V779Q287 764 274 757T230 750Q200 750 187 757Z" />
<glyph unicode="&#xd0;" glyph-name="Eth" horiz-adv-x="696" d="M479 700T562 612T646 350Q646 176 563 88T330 0H120Q101 0 92 9T83 37V301H34Q20 301 14 311T8 344V369Q8 391 14 401T34 412H83V663Q83 683 92 691T120 700H330Q479 700 562 612ZM414 112T462
171T511 350Q511 469 463 528T327 588H215V412H324Q338 412 344 402T351 369V344Q351 321 345 311T324 301H215V112H327Q414 112 462 171Z" />
<glyph unicode="&#xd1;" glyph-name="Ntilde" horiz-adv-x="719" d="M76 -2T76 27V673Q76 702 129 702H165Q187 702 200 697T222 678L478 287Q498 258 513 227L517 228Q515 251 515 296V673Q515 702 568 702H590Q643 702 643 673V27Q643 -2 590 -2H558Q537 -2
525 3T503 21L241 419Q219 450 206 478L202 477Q204 454 204 409V27Q204 -2 151 -2H129Q76 -2 76 27ZM207 752T193 760T179 778Q179 786 185 800Q198 830 224 849T287 868Q304 868 321 864T370 849Q415 834 434 834Q448 834 458 840T480 856Q495 869 502 869Q513
869 526 859T540 839Q540 831 533 820Q518 792 493 773T432 754Q414 754 395 759T346 773Q301 788 282 788Q267 788 258 782T237 765Q226 752 218 752Q207 752 193 760Z" />
<glyph unicode="&#xd2;" glyph-name="Ograve" horiz-adv-x="731" d="M213 -7T131 85T49 351Q49 524 131 615T366 707Q519 707 600 616T682 351Q682 177 601 85T366 -7Q213 -7 131 85ZM454 105T500 168T547 351Q547 471 501 533T366 595Q277 595 231 533T184 351Q184
231 230 168T366 105Q454 105 500 168ZM396 750T382 754T349 770L274 818Q255 830 248 838T241 853Q241 863 257 867T306 871Q339 871 356 866T388 844L442 785Q455 772 455 763Q455 750 421 750Q396 750 382 754Z" />
<glyph unicode="&#xd3;" glyph-name="Oacute" horiz-adv-x="731" d="M213 -7T131 85T49 351Q49 524 131 615T366 707Q519 707 600 616T682 351Q682 177 601 85T366 -7Q213 -7 131 85ZM454 105T500 168T547 351Q547 471 501 533T366 595Q277 595 231 533T184 351Q184
231 230 168T366 105Q454 105 500 168ZM276 750T276 763Q276 772 288 785L342 844Q357 860 374 865T425 871Q458 871 474 867T490 853Q490 846 483 838T456 818L381 770Q364 758 350 754T310 750Q276 750 276 763Z" />
<glyph unicode="&#xd4;" glyph-name="Ocircumflex" horiz-adv-x="731" d="M213 -7T131 85T49 351Q49 524 131 615T366 707Q519 707 600 616T682 351Q682 177 601 85T366 -7Q213 -7 131 85ZM454 105T500 168T547 351Q547 471 501 533T366 595Q277 595 231 533T184
351Q184 231 230 168T366 105Q454 105 500 168ZM238 737T231 739T224 747Q224 755 243 775L297 835Q309 849 321 853T355 858H375Q398 858 409 854T434 835L487 776Q506 755 506 747Q506 741 500 739T472 737Q445 737 420 752L365 786L311 753Q284 737 258 737Q238
737 231 739Z" />
<glyph unicode="&#xd5;" glyph-name="Otilde" horiz-adv-x="731" d="M213 -7T131 85T49 351Q49 524 131 615T366 707Q519 707 600 616T682 351Q682 177 601 85T366 -7Q213 -7 131 85ZM454 105T500 168T547 351Q547 471 501 533T366 595Q277 595 231 533T184 351Q184
231 230 168T366 105Q454 105 500 168ZM213 752T199 760T185 778Q185 786 191 800Q204 830 230 849T293 868Q310 868 327 864T376 849Q421 834 440 834Q454 834 464 840T486 856Q501 869 508 869Q519 869 532 859T546 839Q546 831 539 820Q524 792 499 773T438
754Q420 754 401 759T352 773Q307 788 288 788Q273 788 264 782T243 765Q232 752 224 752Q213 752 199 760Z" />
<glyph unicode="&#xd6;" glyph-name="Odieresis" horiz-adv-x="731" d="M213 -7T131 85T49 351Q49 524 131 615T366 707Q519 707 600 616T682 351Q682 177 601 85T366 -7Q213 -7 131 85ZM454 105T500 168T547 351Q547 471 501 533T366 595Q277 595 231 533T184
351Q184 231 230 168T366 105Q454 105 500 168ZM248 750T235 757T221 779V843Q221 857 234 864T278 871Q308 871 321 864T335 843V779Q335 764 322 757T278 750Q248 750 235 757ZM425 750T412 757T398 779V843Q398 857 411 864T455 871Q485 871 498 864T512 843V779Q512
764 499 757T455 750Q425 750 412 757Z" />
<glyph unicode="&#xd7;" glyph-name="multiply" horiz-adv-x="560" d="M96 7T74 29T51 65Q51 73 60 82L215 237L60 393Q51 402 51 410Q51 422 73 444T108 467Q115 467 125 459L280 303L436 459Q446 467 453 467Q465 467 487 445T510 410Q510 403 502 393L346 237L502
82Q510 72 510 65Q510 56 499 42T474 18T453 7Q445 7 436 16L280 172L125 16Q116 7 108 7Q96 7 74 29Z" />
<glyph unicode="&#xd8;" glyph-name="Oslash" horiz-adv-x="731" d="M682 510T682 351Q682 177 601 85T366 -7Q225 -7 143 72L82 3Q73 -8 63 -8Q53 -8 39 5T24 30Q24 35 33 48L102 125Q49 213 49 351Q49 524 131 615T366 707Q491 707 567 647L619 706Q629 716
639 716Q650 716 664 703T678 679Q678 672 669 661L614 599Q682 510 682 351ZM184 284T199 234L483 553Q440 595 366 595Q277 595 231 533T184 351Q184 284 199 234ZM454 105T500 168T547 351Q547 440 522 496L230 169Q276 105 366 105Q454 105 500 168Z" />
<glyph unicode="&#xd9;" glyph-name="Ugrave" horiz-adv-x="712" d="M220 -7T146 55T72 231V673Q72 702 125 702H150Q203 702 203 673V236Q203 178 246 142T356 105Q423 105 466 142T510 236V673Q510 702 563 702H587Q640 702 640 673V231Q640 118 566 56T356
-7Q220 -7 146 55ZM386 750T372 754T339 770L264 818Q245 830 238 838T231 853Q231 863 247 867T296 871Q329 871 346 866T378 844L432 785Q445 772 445 763Q445 750 411 750Q386 750 372 754Z" />
<glyph unicode="&#xda;" glyph-name="Uacute" horiz-adv-x="712" d="M220 -7T146 55T72 231V673Q72 702 125 702H150Q203 702 203 673V236Q203 178 246 142T356 105Q423 105 466 142T510 236V673Q510 702 563 702H587Q640 702 640 673V231Q640 118 566 56T356
-7Q220 -7 146 55ZM266 750T266 763Q266 772 278 785L332 844Q347 860 364 865T415 871Q448 871 464 867T480 853Q480 846 473 838T446 818L371 770Q354 758 340 754T300 750Q266 750 266 763Z" />
<glyph unicode="&#xdb;" glyph-name="Ucircumflex" horiz-adv-x="712" d="M220 -7T146 55T72 231V673Q72 702 125 702H150Q203 702 203 673V236Q203 178 246 142T356 105Q423 105 466 142T510 236V673Q510 702 563 702H587Q640 702 640 673V231Q640 118 566 56T356
-7Q220 -7 146 55ZM228 737T221 739T214 747Q214 755 233 775L287 835Q299 849 311 853T345 858H365Q388 858 399 854T424 835L477 776Q496 755 496 747Q496 741 490 739T462 737Q435 737 410 752L355 786L301 753Q274 737 248 737Q228 737 221 739Z" />
<glyph unicode="&#xdc;" glyph-name="Udieresis" horiz-adv-x="712" d="M220 -7T146 55T72 231V673Q72 702 125 702H150Q203 702 203 673V236Q203 178 246 142T356 105Q423 105 466 142T510 236V673Q510 702 563 702H587Q640 702 640 673V231Q640 118 566 56T356
-7Q220 -7 146 55ZM238 750T225 757T211 779V843Q211 857 224 864T268 871Q298 871 311 864T325 843V779Q325 764 312 757T268 750Q238 750 225 757ZM415 750T402 757T388 779V843Q388 857 401 864T445 871Q475 871 488 864T502 843V779Q502 764 489 757T445 750Q415
750 402 757Z" />
<glyph unicode="&#xdd;" glyph-name="Yacute" horiz-adv-x="559" d="M214 -2T214 27V344L12 660Q2 675 2 683Q2 702 60 702H92Q134 702 146 684L283 459L421 685Q433 702 476 702H502Q557 702 557 683Q557 674 548 660L345 341V27Q345 -2 292 -2H267Q214 -2 214
27ZM190 750T190 763Q190 772 202 785L256 844Q271 860 288 865T339 871Q372 871 388 867T404 853Q404 846 397 838T370 818L295 770Q278 758 264 754T224 750Q190 750 190 763Z" />
<glyph unicode="&#xde;" glyph-name="Thorn" horiz-adv-x="570" d="M100 -2T88 5T75 27V673Q75 688 87 695T128 702H153Q206 702 206 673V588H319Q410 588 480 544T551 377Q551 291 511 243T420 179T329 162H206V27Q206 -2 153 -2H128Q100 -2 88 5ZM318 275Q357
275 387 297T417 377Q417 432 386 454T313 476H206V275H318Z" />
<glyph unicode="&#xdf;" glyph-name="germandbls" horiz-adv-x="554" d="M69 -2T69 27V501Q69 562 96 609T173 681T287 707Q381 707 440 662T500 532Q500 484 475 445T404 387V383Q526 344 526 209Q526 147 498 100T418 26T299 0H273Q259 0 253 10T246 43V58Q246
81 252 91T273 101H293Q339 101 368 130T398 209Q398 260 367 290T286 321H273Q259 321 253 331T246 364V379Q246 422 271 422H276Q316 422 343 449T371 517Q371 554 348 577T285 601Q243 601 219 576T195 509V27Q195 -2 142 -2H122Q69 -2 69 27Z" />
<glyph unicode="&#xe0;" glyph-name="agrave" horiz-adv-x="545" d="M124 -7T84 32T44 140Q44 324 347 325V363Q347 429 258 429Q221 429 193 421T144 403T120 393Q107 393 91 421T74 463Q74 479 99 494T169 520T264 530Q370 530 421 487T473 367V166Q473 98 479
67T485 28Q485 14 452 7T393 -1Q377 -1 370 13T360 45T355 68Q334 41 296 17T200 -7Q124 -7 84 32ZM269 94T298 112T347 160V236Q265 236 219 218T172 152Q172 125 188 110T234 94Q269 94 298 112ZM268 573T252 579T222 601L166 663Q144 686 144 701Q144 711 155
714T195 718Q234 718 248 712T272 689L312 615Q314 611 319 602T325 588Q325 581 318 577T290 573Q268 573 252 579Z" />
<glyph unicode="&#xe1;" glyph-name="aacute" horiz-adv-x="545" d="M124 -7T84 32T44 140Q44 324 347 325V363Q347 429 258 429Q221 429 193 421T144 403T120 393Q107 393 91 421T74 463Q74 479 99 494T169 520T264 530Q370 530 421 487T473 367V166Q473 98 479
67T485 28Q485 14 452 7T393 -1Q377 -1 370 13T360 45T355 68Q334 41 296 17T200 -7Q124 -7 84 32ZM269 94T298 112T347 160V236Q265 236 219 218T172 152Q172 125 188 110T234 94Q269 94 298 112ZM199 573T199 588Q199 592 203 600T211 615L251 689Q261 706 275
712T328 718Q356 718 368 715T380 701Q380 688 358 663L302 601Q288 585 272 579T233 573Q199 573 199 588Z" />
<glyph unicode="&#xe2;" glyph-name="acircumflex" horiz-adv-x="545" d="M124 -7T84 32T44 140Q44 324 347 325V363Q347 429 258 429Q221 429 193 421T144 403T120 393Q107 393 91 421T74 463Q74 479 99 494T169 520T264 530Q370 530 421 487T473 367V166Q473
98 479 67T485 28Q485 14 452 7T393 -1Q377 -1 370 13T360 45T355 68Q334 41 296 17T200 -7Q124 -7 84 32ZM269 94T298 112T347 160V236Q265 236 219 218T172 152Q172 125 188 110T234 94Q269 94 298 112ZM141 573T141 588Q141 593 146 602T153 615L196 692Q204
707 217 712T261 718H284Q314 718 327 712T349 692L392 615Q394 612 399 603T404 588Q404 573 370 573Q348 573 337 578T314 598L273 645L232 598Q221 584 209 579T175 573Q141 573 141 588Z" />
<glyph unicode="&#xe3;" glyph-name="atilde" horiz-adv-x="545" d="M124 -7T84 32T44 140Q44 324 347 325V363Q347 429 258 429Q221 429 193 421T144 403T120 393Q107 393 91 421T74 463Q74 479 99 494T169 520T264 530Q370 530 421 487T473 367V166Q473 98 479
67T485 28Q485 14 452 7T393 -1Q377 -1 370 13T360 45T355 68Q334 41 296 17T200 -7Q124 -7 84 32ZM269 94T298 112T347 160V236Q265 236 219 218T172 152Q172 125 188 110T234 94Q269 94 298 112ZM123 585T108 593T92 611Q92 619 96 631Q110 663 135 681T195 700Q217
700 241 693T272 684Q314 670 331 670Q347 670 356 675T375 690Q380 695 385 698T395 702Q403 702 419 692T436 672Q436 665 430 651Q399 588 330 588Q314 588 294 593T254 605Q239 610 224 614T198 619Q183 619 173 613T152 597Q147 592 143 589T133 585Q123 585
108 593Z" />
<glyph unicode="&#xe4;" glyph-name="adieresis" horiz-adv-x="545" d="M124 -7T84 32T44 140Q44 324 347 325V363Q347 429 258 429Q221 429 193 421T144 403T120 393Q107 393 91 421T74 463Q74 479 99 494T169 520T264 530Q370 530 421 487T473 367V166Q473 98
479 67T485 28Q485 14 452 7T393 -1Q377 -1 370 13T360 45T355 68Q334 41 296 17T200 -7Q124 -7 84 32ZM269 94T298 112T347 160V236Q265 236 219 218T172 152Q172 125 188 110T234 94Q269 94 298 112ZM158 587T145 594T132 615V676Q132 691 145 698T188 705Q217
705 230 698T244 676V615Q244 601 231 594T188 587Q158 587 145 594ZM329 587T316 594T303 615V676Q303 691 316 698T359 705Q388 705 401 698T414 676V615Q414 601 401 594T359 587Q329 587 316 594Z" />
<glyph unicode="&#xe5;" glyph-name="aring" horiz-adv-x="545" d="M124 -7T84 32T44 140Q44 324 347 325V363Q347 429 258 429Q221 429 193 421T144 403T120 393Q107 393 91 421T74 463Q74 479 99 494T169 520T264 530Q370 530 421 487T473 367V166Q473 98 479
67T485 28Q485 14 452 7T393 -1Q377 -1 370 13T360 45T355 68Q334 41 296 17T200 -7Q124 -7 84 32ZM269 94T298 112T347 160V236Q265 236 219 218T172 152Q172 125 188 110T234 94Q269 94 298 112ZM231 551T204 578T176 645Q176 686 203 713T272 740Q313 740 341
713T369 645Q369 605 341 578T272 551Q231 551 204 578ZM287 610T297 620T307 644Q307 660 297 670T272 680Q257 680 247 670T237 644Q237 630 247 620T272 610Q287 610 297 620Z" />
<glyph unicode="&#xe6;" glyph-name="ae" horiz-adv-x="819" d="M134 -7T89 33T44 140Q44 316 332 319Q337 365 351 397Q328 429 258 429Q225 429 198 421T143 401Q125 393 120 393Q107 393 91 421T74 463Q74 479 99 494T169 520T264 530Q370 530 422 490Q478
530 566 530Q674 530 726 464T779 283Q779 271 762 251T735 230H460Q462 159 495 127T586 94Q640 94 696 122Q712 129 716 129Q729 129 745 103T762 62Q762 43 733 27T662 2T582 -7Q456 -7 393 59Q364 33 318 13T212 -7Q134 -7 89 33ZM654 320Q654 372 631 400T565
429Q472 429 459 320H654ZM267 94T296 107T344 143Q330 186 329 230Q172 228 172 152Q172 125 188 110T234 94Q267 94 296 107Z" />
<glyph unicode="&#xe7;" glyph-name="ccedilla" horiz-adv-x="485" d="M464 30T417 14T317 -6L305 -49Q346 -53 368 -72T391 -122Q391 -168 360 -189T273 -211Q229 -211 189 -198T148 -164Q148 -149 156 -139T173 -129Q180 -129 199 -136Q243 -150 271 -150Q312
-150 312 -123Q312 -110 302 -104T269 -91Q241 -85 241 -75Q241 -67 260 -6Q151 3 98 68T45 260Q45 398 110 464T296 530Q356 530 406 513T456 469Q456 455 439 428T410 400Q409 400 395 406Q349 429 300 429Q237 429 207 389T176 263Q176 176 205 135T300 94Q332
94 354 100T403 118Q415 123 418 123Q432 123 448 97T464 56Q464 30 417 14Z" />
<glyph unicode="&#xe8;" glyph-name="egrave" horiz-adv-x="539" d="M173 -7T110 61T47 258Q47 396 109 463T286 530Q394 530 446 460T499 271Q499 260 481 240T454 219H178Q183 153 214 124T306 94Q360 94 416 122Q432 129 436 129Q449 129 465 103T482 62Q482
43 453 27T382 2T302 -7Q173 -7 110 61ZM374 308Q374 365 352 397T285 429Q192 429 178 308H374ZM273 573T257 579T227 601L171 663Q149 686 149 701Q149 711 160 714T200 718Q239 718 253 712T277 689L317 615Q319 611 324 602T330 588Q330 581 323 577T295 573Q273
573 257 579Z" />
<glyph unicode="&#xe9;" glyph-name="eacute" horiz-adv-x="539" d="M173 -7T110 61T47 258Q47 396 109 463T286 530Q394 530 446 460T499 271Q499 260 481 240T454 219H178Q183 153 214 124T306 94Q360 94 416 122Q432 129 436 129Q449 129 465 103T482 62Q482
43 453 27T382 2T302 -7Q173 -7 110 61ZM374 308Q374 365 352 397T285 429Q192 429 178 308H374ZM204 573T204 588Q204 592 208 600T216 615L256 689Q266 706 280 712T333 718Q361 718 373 715T385 701Q385 688 363 663L307 601Q293 585 277 579T238 573Q204 573
204 588Z" />
<glyph unicode="&#xea;" glyph-name="ecircumflex" horiz-adv-x="539" d="M173 -7T110 61T47 258Q47 396 109 463T286 530Q394 530 446 460T499 271Q499 260 481 240T454 219H178Q183 153 214 124T306 94Q360 94 416 122Q432 129 436 129Q449 129 465 103T482
62Q482 43 453 27T382 2T302 -7Q173 -7 110 61ZM374 308Q374 365 352 397T285 429Q192 429 178 308H374ZM146 573T146 588Q146 593 151 602T158 615L201 692Q209 707 222 712T266 718H289Q319 718 332 712T354 692L397 615Q399 612 404 603T409 588Q409 573 375
573Q353 573 342 578T319 598L278 645L237 598Q226 584 214 579T180 573Q146 573 146 588Z" />
<glyph unicode="&#xeb;" glyph-name="edieresis" horiz-adv-x="539" d="M173 -7T110 61T47 258Q47 396 109 463T286 530Q394 530 446 460T499 271Q499 260 481 240T454 219H178Q183 153 214 124T306 94Q360 94 416 122Q432 129 436 129Q449 129 465 103T482 62Q482
43 453 27T382 2T302 -7Q173 -7 110 61ZM374 308Q374 365 352 397T285 429Q192 429 178 308H374ZM164 587T151 594T138 615V676Q138 691 151 698T194 705Q223 705 236 698T250 676V615Q250 601 237 594T194 587Q164 587 151 594ZM335 587T322 594T309 615V676Q309
691 322 698T365 705Q394 705 407 698T420 676V615Q420 601 407 594T365 587Q335 587 322 594Z" />
<glyph unicode="&#xec;" glyph-name="igrave" horiz-adv-x="265" d="M70 -2T70 27V496Q70 525 123 525H143Q196 525 196 496V27Q196 -2 143 -2H123Q70 -2 70 27ZM128 573T112 579T82 601L26 663Q4 686 4 701Q4 711 15 714T55 718Q94 718 108 712T132 689L172 615Q174
611 179 602T185 588Q185 581 178 577T150 573Q128 573 112 579Z" />
<glyph unicode="&#xed;" glyph-name="iacute" horiz-adv-x="265" d="M70 -2T70 27V496Q70 525 123 525H143Q196 525 196 496V27Q196 -2 143 -2H123Q70 -2 70 27ZM59 573T59 588Q59 592 63 600T71 615L111 689Q121 706 135 712T188 718Q216 718 228 715T240 701Q240
688 218 663L162 601Q148 585 132 579T93 573Q59 573 59 588Z" />
<glyph unicode="&#xee;" glyph-name="icircumflex" horiz-adv-x="265" d="M70 -2T70 27V496Q70 525 123 525H143Q196 525 196 496V27Q196 -2 143 -2H123Q70 -2 70 27ZM1 573T1 588Q1 593 6 602T13 615L56 692Q64 707 77 712T121 718H144Q174 718 187 712T209 692L252
615Q254 612 259 603T264 588Q264 573 230 573Q208 573 197 578T174 598L133 645L92 598Q81 584 69 579T35 573Q1 573 1 588Z" />
<glyph unicode="&#xef;" glyph-name="idieresis" horiz-adv-x="265" d="M70 -2T70 27V496Q70 525 123 525H143Q196 525 196 496V27Q196 -2 143 -2H123Q70 -2 70 27ZM18 587T5 594T-8 615V676Q-8 691 5 698T48 705Q77 705 90 698T104 676V615Q104 601 91 594T48
587Q18 587 5 594ZM189 587T176 594T163 615V676Q163 691 176 698T219 705Q248 705 261 698T274 676V615Q274 601 261 594T219 587Q189 587 176 594Z" />
<glyph unicode="&#xf0;" glyph-name="eth" horiz-adv-x="569" d="M464 539T493 447T523 261Q523 130 463 62T286 -7Q169 -7 108 62T47 261Q47 392 108 461T286 530Q319 530 347 524Q335 552 310 595Q246 586 240 586Q227 586 217 598T206 624Q206 638 225 639L278
647Q274 652 259 671T244 697Q244 708 262 709L312 715Q333 715 346 703Q358 693 383 661L455 670Q467 670 477 657T487 632Q487 620 469 617L418 610Q464 539 493 447ZM341 94T367 135T394 262Q394 346 368 387T285 429Q228 429 201 388T174 262Q174 177 201 136T285
94Q341 94 367 135Z" />
<glyph unicode="&#xf1;" glyph-name="ntilde" horiz-adv-x="557" d="M70 -2T70 27V355Q70 422 64 453T58 491Q58 505 91 512T150 520Q167 520 174 506T184 476T189 455Q215 488 255 509T340 530Q492 530 492 368V27Q492 12 480 5T439 -2H420Q367 -2 367 27V351Q367
425 292 425Q263 425 238 407T196 363V27Q196 -2 143 -2H123Q70 -2 70 27ZM129 585T114 593T98 611Q98 619 102 631Q116 663 141 681T201 700Q223 700 247 693T278 684Q320 670 337 670Q353 670 362 675T381 690Q386 695 391 698T401 702Q409 702 425 692T442 672Q442
665 436 651Q405 588 336 588Q320 588 300 593T260 605Q245 610 230 614T204 619Q189 619 179 613T158 597Q153 592 149 589T139 585Q129 585 114 593Z" />
<glyph unicode="&#xf2;" glyph-name="ograve" horiz-adv-x="569" d="M169 -7T108 62T47 261Q47 392 108 461T286 530Q402 530 462 461T523 261Q523 130 463 62T286 -7Q169 -7 108 62ZM341 94T367 135T394 262Q394 346 368 387T285 429Q229 429 202 388T175 262Q175
177 202 136T285 94Q341 94 367 135ZM280 573T264 579T234 601L178 663Q156 686 156 701Q156 711 167 714T207 718Q246 718 260 712T284 689L324 615Q326 611 331 602T337 588Q337 581 330 577T302 573Q280 573 264 579Z" />
<glyph unicode="&#xf3;" glyph-name="oacute" horiz-adv-x="569" d="M169 -7T108 62T47 261Q47 392 108 461T286 530Q402 530 462 461T523 261Q523 130 463 62T286 -7Q169 -7 108 62ZM341 94T367 135T394 262Q394 346 368 387T285 429Q229 429 202 388T175 262Q175
177 202 136T285 94Q341 94 367 135ZM211 573T211 588Q211 592 215 600T223 615L263 689Q273 706 287 712T340 718Q368 718 380 715T392 701Q392 688 370 663L314 601Q300 585 284 579T245 573Q211 573 211 588Z" />
<glyph unicode="&#xf4;" glyph-name="ocircumflex" horiz-adv-x="569" d="M169 -7T108 62T47 261Q47 392 108 461T286 530Q402 530 462 461T523 261Q523 130 463 62T286 -7Q169 -7 108 62ZM341 94T367 135T394 262Q394 346 368 387T285 429Q229 429 202 388T175
262Q175 177 202 136T285 94Q341 94 367 135ZM153 573T153 588Q153 593 158 602T165 615L208 692Q216 707 229 712T273 718H296Q326 718 339 712T361 692L404 615Q406 612 411 603T416 588Q416 573 382 573Q360 573 349 578T326 598L285 645L244 598Q233 584 221
579T187 573Q153 573 153 588Z" />
<glyph unicode="&#xf5;" glyph-name="otilde" horiz-adv-x="569" d="M169 -7T108 62T47 261Q47 392 108 461T286 530Q402 530 462 461T523 261Q523 130 463 62T286 -7Q169 -7 108 62ZM341 94T367 135T394 262Q394 346 368 387T285 429Q229 429 202 388T175 262Q175
177 202 136T285 94Q341 94 367 135ZM135 585T120 593T104 611Q104 619 108 631Q122 663 147 681T207 700Q229 700 253 693T284 684Q326 670 343 670Q359 670 368 675T387 690Q392 695 397 698T407 702Q415 702 431 692T448 672Q448 665 442 651Q411 588 342 588Q326
588 306 593T266 605Q251 610 236 614T210 619Q195 619 185 613T164 597Q159 592 155 589T145 585Q135 585 120 593Z" />
<glyph unicode="&#xf6;" glyph-name="odieresis" horiz-adv-x="569" d="M169 -7T108 62T47 261Q47 392 108 461T286 530Q402 530 462 461T523 261Q523 130 463 62T286 -7Q169 -7 108 62ZM341 94T367 135T394 262Q394 346 368 387T285 429Q229 429 202 388T175
262Q175 177 202 136T285 94Q341 94 367 135ZM170 587T157 594T144 615V676Q144 691 157 698T200 705Q229 705 242 698T256 676V615Q256 601 243 594T200 587Q170 587 157 594ZM341 587T328 594T315 615V676Q315 691 328 698T371 705Q400 705 413 698T426 676V615Q426
601 413 594T371 587Q341 587 328 594Z" />
<glyph unicode="&#xf7;" glyph-name="divide" horiz-adv-x="560" d="M222 335T222 364V428Q222 442 234 449T275 456H284Q312 456 324 449T337 428V364Q337 335 284 335H275Q222 335 222 364ZM49 180T43 190T37 223V232Q37 254 43 264T63 275H497Q511 275 517
265T523 232V223Q523 201 517 191T497 180H63Q49 180 43 190ZM222 -2T222 27V91Q222 119 275 119H284Q337 119 337 91V27Q337 -2 284 -2H275Q222 -2 222 27Z" />
<glyph unicode="&#xf8;" glyph-name="oslash" horiz-adv-x="569" d="M479 438Q523 371 523 261Q523 130 463 62T286 -7Q193 -7 135 37L106 4Q96 -7 87 -7Q76 -7 62 5T48 29Q48 38 57 47L90 85Q47 150 47 261Q47 392 108 461T286 530Q377 530 434 487L467 525Q476
536 486 536Q496 536 510 523T525 500Q525 492 516 481L479 438ZM175 223T181 191L359 399Q332 429 285 429Q229 429 202 388T175 262Q175 223 181 191ZM394 302T388 332L210 125Q237 94 285 94Q341 94 367 135T394 262Q394 302 388 332Z" />
<glyph unicode="&#xf9;" glyph-name="ugrave" horiz-adv-x="557" d="M65 -7T65 155V496Q65 511 77 518T118 525H137Q190 525 190 496V172Q190 98 265 98Q294 98 319 116T361 160V496Q361 525 414 525H434Q487 525 487 496V166Q487 98 493 67T499 28Q499 14 466
7T407 -1Q391 -1 384 13T374 45T369 68Q342 35 302 14T217 -7Q65 -7 65 155ZM271 573T255 579T225 601L169 663Q147 686 147 701Q147 711 158 714T198 718Q237 718 251 712T275 689L315 615Q317 611 322 602T328 588Q328 581 321 577T293 573Q271 573 255 579Z"
/>
<glyph unicode="&#xfa;" glyph-name="uacute" horiz-adv-x="557" d="M65 -7T65 155V496Q65 511 77 518T118 525H137Q190 525 190 496V172Q190 98 265 98Q294 98 319 116T361 160V496Q361 525 414 525H434Q487 525 487 496V166Q487 98 493 67T499 28Q499 14 466
7T407 -1Q391 -1 384 13T374 45T369 68Q342 35 302 14T217 -7Q65 -7 65 155ZM202 573T202 588Q202 592 206 600T214 615L254 689Q264 706 278 712T331 718Q359 718 371 715T383 701Q383 688 361 663L305 601Q291 585 275 579T236 573Q202 573 202 588Z" />
<glyph unicode="&#xfb;" glyph-name="ucircumflex" horiz-adv-x="557" d="M65 -7T65 155V496Q65 511 77 518T118 525H137Q190 525 190 496V172Q190 98 265 98Q294 98 319 116T361 160V496Q361 525 414 525H434Q487 525 487 496V166Q487 98 493 67T499 28Q499 14
466 7T407 -1Q391 -1 384 13T374 45T369 68Q342 35 302 14T217 -7Q65 -7 65 155ZM144 573T144 588Q144 593 149 602T156 615L199 692Q207 707 220 712T264 718H287Q317 718 330 712T352 692L395 615Q397 612 402 603T407 588Q407 573 373 573Q351 573 340 578T317
598L276 645L235 598Q224 584 212 579T178 573Q144 573 144 588Z" />
<glyph unicode="&#xfc;" glyph-name="udieresis" horiz-adv-x="557" d="M65 -7T65 155V496Q65 511 77 518T118 525H137Q190 525 190 496V172Q190 98 265 98Q294 98 319 116T361 160V496Q361 525 414 525H434Q487 525 487 496V166Q487 98 493 67T499 28Q499 14
466 7T407 -1Q391 -1 384 13T374 45T369 68Q342 35 302 14T217 -7Q65 -7 65 155ZM161 587T148 594T135 615V676Q135 691 148 698T191 705Q220 705 233 698T247 676V615Q247 601 234 594T191 587Q161 587 148 594ZM332 587T319 594T306 615V676Q306 691 319 698T362
705Q391 705 404 698T417 676V615Q417 601 404 594T362 587Q332 587 319 594Z" />
<glyph unicode="&#xfd;" glyph-name="yacute" horiz-adv-x="481" d="M472 525T472 505Q472 499 469 488L230 -186Q222 -207 177 -207H161Q136 -207 123 -202T110 -187Q110 -181 115 -170L185 11L16 488Q15 491 14 495T13 505Q13 525 68 525H91Q135 525 142 506L216
291Q227 256 245 177H248L257 213Q269 263 278 291L351 506Q358 525 402 525H419Q472 525 472 505ZM167 573T167 588Q167 592 171 600T179 615L219 689Q229 706 243 712T296 718Q324 718 336 715T348 701Q348 688 326 663L270 601Q256 585 240 579T201 573Q167
573 167 588Z" />
<glyph unicode="&#xfe;" glyph-name="thorn" horiz-adv-x="573" d="M101 -207T89 -200T76 -178V725Q76 753 129 753H148Q201 753 201 725V467Q226 497 261 513T336 530Q392 530 435 498T502 405T526 261Q526 136 471 65T318 -7Q252 -7 201 31V-178Q201 -207 148
-207H129Q101 -207 89 -200ZM397 95T397 259Q397 341 373 383T302 426Q273 426 248 409T201 363V123Q241 95 290 95Q397 95 397 259Z" />
<glyph unicode="&#xff;" glyph-name="ydieresis" horiz-adv-x="481" d="M472 525T472 505Q472 499 469 488L230 -186Q222 -207 177 -207H161Q136 -207 123 -202T110 -187Q110 -181 115 -170L185 11L16 488Q15 491 14 495T13 505Q13 525 68 525H91Q135 525 142
506L216 291Q227 256 245 177H248L257 213Q269 263 278 291L351 506Q358 525 402 525H419Q472 525 472 505ZM126 587T113 594T100 615V676Q100 691 113 698T156 705Q185 705 198 698T212 676V615Q212 601 199 594T156 587Q126 587 113 594ZM297 587T284 594T271
615V676Q271 691 284 698T327 705Q356 705 369 698T382 676V615Q382 601 369 594T327 587Q297 587 284 594Z" />
<glyph unicode="&#x2013;" glyph-name="endash" horiz-adv-x="500" d="M56 218T50 228T44 261V269Q44 292 50 302T70 312H430Q444 312 450 302T456 269V261Q456 239 450 229T430 218H70Q56 218 50 228Z" />
<glyph unicode="&#x2014;" glyph-name="emdash" horiz-adv-x="1000" d="M66 218T60 228T54 261V269Q54 292 60 302T80 312H920Q934 312 940 302T946 269V261Q946 239 940 229T920 218H80Q66 218 60 228Z" />
<glyph unicode="&#x2018;" glyph-name="quoteleft" horiz-adv-x="212" d="M68 491T55 501T41 529Q41 583 63 634T115 718T167 751Q182 751 194 746T207 731Q207 722 200 706Q183 668 173 629T163 531Q163 491 110 491H94Q68 491 55 501Z" />
<glyph unicode="&#x2019;" glyph-name="quoteright" horiz-adv-x="212" d="M42 496T30 501T17 516Q17 525 25 543Q41 580 51 619T61 716Q61 735 74 745T114 756H129Q155 756 168 746T182 718Q182 664 160 613T108 529T56 496Q42 496 30 501Z" />
<glyph unicode="&#x201a;" glyph-name="quotesinglbase" horiz-adv-x="198" d="M15 -122T3 -117T-10 -102Q-10 -93 -2 -75Q14 -38 24 1T34 98Q34 117 47 127T87 138H102Q128 138 141 128T155 100Q155 46 133 -5T81 -89T29 -122Q15 -122 3 -117Z" />
<glyph unicode="&#x201c;" glyph-name="quotedblleft" horiz-adv-x="350" d="M225 491T212 501T198 529Q198 583 220 634T272 718T324 751Q339 751 351 746T364 731Q364 722 357 706Q340 668 330 629T320 531Q320 491 267 491H251Q225 491 212 501ZM317 491T304
501T290 529Q290 583 312 634T364 718T416 751Q431 751 443 746T456 731Q456 722 449 706Q432 668 422 629T412 531Q412 491 359 491H343Q317 491 304 501Z" />
<glyph unicode="&#x201d;" glyph-name="quotedblright" horiz-adv-x="350" d="M191 496T179 501T166 516Q166 525 174 543Q190 580 200 619T210 716Q210 735 223 745T263 756H278Q304 756 317 746T331 718Q331 664 309 613T257 529T205 496Q191 496 179 501ZM282
496T270 501T257 516Q257 525 265 543Q281 580 291 619T301 716Q301 735 314 745T354 756H369Q395 756 408 746T422 718Q422 664 400 613T348 529T296 496Q282 496 270 501Z" />
<glyph unicode="&#x201e;" glyph-name="quotedblbase" horiz-adv-x="350" d="M179 -122T167 -117T154 -102Q154 -93 162 -75Q178 -38 188 1T198 98Q198 117 211 127T251 138H266Q292 138 305 128T319 100Q319 46 297 -5T245 -89T193 -122Q179 -122 167 -117ZM270
-122T258 -117T245 -102Q245 -93 253 -75Q269 -38 279 1T289 98Q289 117 302 127T342 138H357Q383 138 396 128T410 100Q410 46 388 -5T336 -89T284 -122Q270 -122 258 -117Z" />
<glyph unicode="&#x2022;" glyph-name="bullet" horiz-adv-x="336" d="M133 196T103 213T56 261T38 326Q38 361 55 391T103 439T168 457Q203 457 233 440T281 392T299 326Q299 291 282 261T234 214T168 196Q133 196 103 213Z" />
<glyph unicode="&#x2039;" glyph-name="guilsinglleft" horiz-adv-x="300" d="M186 51T174 66L46 220Q38 230 35 238T31 258Q31 280 46 296L174 451Q186 464 199 464Q213 464 231 450T250 421Q250 411 241 399L131 258L241 116Q250 106 250 95Q250 82 232 67T199
51Q186 51 174 66Z" />
<glyph unicode="&#x203a;" glyph-name="guilsinglright" horiz-adv-x="300" d="M86 51T68 66T50 95Q50 106 59 116L169 258L59 399Q50 411 50 421Q50 436 68 450T101 464Q116 464 126 451L254 296Q269 280 269 258Q269 247 266 239T254 220L126 66Q116 51 101
51Q86 51 68 66Z" />
</font>
</defs>
</svg>
