<?xml version="1.0" standalone="no"?>
<!DOCTYPE svg PUBLIC "-//W3C//DTD SVG 1.1//EN" "http://www.w3.org/Graphics/SVG/1.1/DTD/svg11.dtd">
<svg xmlns="http://www.w3.org/2000/svg">
<defs >
<font id="Asap" horiz-adv-x="536" ><font-face
    font-family="Asap"
    units-per-em="1000"
    panose-1="2 15 8 4 3 2 2 6 2 3"
    ascent="934"
    descent="-212"
    alphabetic="0" />
<glyph unicode=" " glyph-name="space" horiz-adv-x="240" />
<glyph unicode="!" glyph-name="exclam" horiz-adv-x="294" d="M113 222T102 229T91 254V670Q91 702 151 702H194Q223 702 238 695T254 674L204 254Q202 237 192 230T153 222H142Q113 222 102 229ZM71 -2T71 30V122Q71 154 131 154H163Q223 154 223 122V30Q223
-2 163 -2H131Q71 -2 71 30Z" />
<glyph unicode="&quot;" glyph-name="quotedbl" horiz-adv-x="320" d="M316 464T308 471T298 494L276 670Q271 702 336 702H346Q411 702 406 670L384 494Q382 478 374 471T350 464H332Q316 464 308 471ZM210 464T202 471T192 494L170 670Q165 702 230 702H240Q305
702 300 670L278 494Q276 478 268 471T244 464H226Q210 464 202 471Z" />
<glyph unicode="#" glyph-name="numbersign" horiz-adv-x="534" d="M74 -2T63 3T52 21L57 52Q59 63 82 183H39Q23 183 16 195T9 233V243Q9 269 16 281T39 293H102L123 403H75Q59 403 52 415T45 453V463Q45 489 52 501T75 513H143L169 655Q175 686 225 686H238Q283
686 283 664L256 513H350L376 655Q382 686 432 686H445Q490 686 490 664L463 513H496Q512 513 519 501T526 463V453Q526 427 519 415T496 403H443L422 293H464Q480 293 487 281T494 243V233Q494 207 487 195T464 183H402L373 29Q367 -2 318 -2H305Q281 -2 270 3T259
21L264 52Q266 63 289 183H195L166 29Q160 -2 111 -2H98Q74 -2 63 3ZM309 293L330 403H236L215 293H309Z" />
<glyph unicode="$" glyph-name="dollar" horiz-adv-x="500" d="M482 113T435 59T291 -5V-56Q291 -81 265 -81H260Q234 -81 234 -56V-7Q129 -3 65 31Q44 43 33 56T21 80Q21 95 32 116T58 153T83 169Q92 169 112 158Q141 142 173 133T234 123V287Q231 288 220 292Q144
322 90 375T35 503Q35 587 89 641T234 706V743Q234 768 260 768H265Q291 768 291 743V708Q335 706 370 696T427 672Q452 655 452 638Q452 624 443 603T421 567T397 551Q392 551 357 562Q327 571 291 574V424L296 422Q482 342 482 207Q482 113 435 59ZM183 496T196
481T234 451V574Q210 569 197 554T183 517Q183 496 196 481ZM336 144T336 196Q336 218 325 233T291 261V130Q336 144 336 196Z" />
<glyph unicode="%" glyph-name="percent" horiz-adv-x="765" d="M125 372T82 409T39 540Q39 634 82 671T189 708Q253 708 296 671T339 540Q339 446 296 409T189 372Q125 372 82 409ZM158 -2T153 1T147 11Q147 16 152 26L509 674Q525 702 553 702H597Q607 702 612
698T618 688Q618 684 613 674L256 26Q240 -2 212 -2H168Q158 -2 153 1ZM236 454T236 540Q236 622 189 622Q162 622 152 599T141 540Q141 504 152 479T189 454Q236 454 236 540ZM512 -8T469 29T426 160Q426 254 469 291T576 328Q640 328 683 291T726 160Q726 66
683 29T576 -8Q512 -8 469 29ZM623 74T623 160Q623 242 576 242Q549 242 539 219T528 160Q528 124 539 99T576 74Q623 74 623 160Z" />
<glyph unicode="&amp;" glyph-name="ampersand" horiz-adv-x="624" d="M613 113T620 98T631 65T635 41Q635 -8 539 -8Q467 -8 430 32Q387 10 347 1T249 -8Q148 -8 86 49T23 204Q23 267 52 314T139 383V387Q96 405 71 443T46 533Q46 613 101 660T251 708Q299 708
330 700T361 666Q361 631 350 608T326 584Q322 584 308 587T277 591Q237 591 217 569T196 509Q196 471 223 449T299 426H393L406 521Q411 553 460 553H491Q541 553 541 521V426H590Q606 426 613 414T620 376V359Q620 333 613 321T590 309H541V152Q541 129 549 119T577
109Q582 109 590 111T604 113Q613 113 620 98ZM173 160T200 135T272 109Q331 109 393 136V309H290Q229 309 201 283T173 206Q173 160 200 135Z" />
<glyph unicode="&apos;" glyph-name="quotesingle" horiz-adv-x="192" d="M71 464T63 471T53 494L31 670Q26 702 91 702H101Q166 702 161 670L139 494Q137 478 129 471T105 464H87Q71 464 63 471Z" />
<glyph unicode="(" glyph-name="parenleft" horiz-adv-x="301" d="M213 -208T201 -192Q128 -87 90 35T51 287Q51 419 89 542T201 767Q213 783 228 783Q244 783 264 768T285 737Q285 726 280 717Q220 605 194 503T168 287Q168 171 193 70T280 -142Q285 -151 285
-162Q285 -178 265 -193T228 -208Q213 -208 201 -192Z" />
<glyph unicode=")" glyph-name="parenright" horiz-adv-x="301" d="M54 -208T34 -193T13 -162Q13 -151 18 -142Q78 -30 104 71T130 287Q130 404 105 506T18 717Q13 726 13 737Q13 753 33 768T70 783Q85 783 97 767Q170 662 208 540T247 287Q247 156 209 33T97
-192Q85 -208 70 -208Q54 -208 34 -193Z" />
<glyph unicode="*" glyph-name="asterisk" horiz-adv-x="373" d="M94 411T83 421T71 440Q71 450 80 460L136 539L61 563Q39 570 39 586Q39 599 46 611T67 623Q76 623 81 621L158 596V678Q158 694 165 701T188 708Q204 708 211 701T218 678V596L293 621Q298 623
306 623Q317 623 326 613T335 586Q335 577 330 572T313 563L237 539L294 460Q302 451 302 440Q302 431 291 421T269 411Q257 411 246 426L187 509L128 426Q117 411 105 411Q94 411 83 421Z" />
<glyph unicode="+" glyph-name="plus" horiz-adv-x="560" d="M246 0T234 7T222 30V182H70Q54 182 47 194T40 232V239Q40 265 47 277T70 289H222V443Q222 459 234 466T272 473H286Q312 473 324 466T336 443V289H490Q506 289 513 277T520 239V232Q520 206 513 194T490
182H336V30Q336 14 324 7T286 0H272Q246 0 234 7Z" />
<glyph unicode="," glyph-name="comma" horiz-adv-x="198" d="M17 -125T3 -120T-12 -103Q-12 -93 -3 -70Q14 -25 23 11T32 110Q32 154 92 154H111Q141 154 156 142T171 110Q171 57 147 3T89 -88T33 -125Q17 -125 3 -120Z" />
<glyph unicode="-" glyph-name="hyphen" horiz-adv-x="320" d="M42 212T35 224T28 262V269Q28 295 35 307T58 319H262Q278 319 285 307T292 269V262Q292 236 285 224T262 212H58Q42 212 35 224Z" />
<glyph unicode="." glyph-name="period" horiz-adv-x="198" d="M23 -2T23 30V122Q23 154 83 154H115Q175 154 175 122V30Q175 -2 115 -2H83Q23 -2 23 30Z" />
<glyph unicode="/" glyph-name="slash" horiz-adv-x="422" d="M0 -79T0 -63Q0 -61 8 -41L297 677Q303 691 317 696T356 702H369Q422 702 422 686Q422 680 415 664L125 -54Q119 -69 106 -74T67 -79H49Q0 -79 0 -63Z" />
<glyph unicode="0" glyph-name="zero" horiz-adv-x="535" d="M194 -8T141 34T60 157T31 350Q31 462 59 542T141 665T268 708Q342 708 395 666T476 543T505 350Q505 238 477 158T395 35T268 -8Q194 -8 141 34ZM310 109T332 170T355 350Q355 469 333 530T268 591Q226
591 204 530T181 350Q181 231 203 170T268 109Q310 109 332 170Z" />
<glyph unicode="1" glyph-name="one" horiz-adv-x="535" d="M68 0T61 12T54 50V67Q54 93 61 105T84 117H217V566L81 546Q64 546 57 573T49 630Q49 653 75 658L324 704Q337 704 351 697T365 680V117H462Q478 117 485 105T492 67V50Q492 24 485 12T462 0H84Q68 0 61 12Z" />
<glyph unicode="2" glyph-name="two" horiz-adv-x="535" d="M53 0T44 31T35 88Q35 99 38 103L291 413Q329 460 329 509Q329 548 303 569T236 590Q208 590 188 582T144 559Q127 547 119 547Q97 547 80 571T62 616Q62 658 123 683T261 708Q364 708 421 654T479 512Q479
424 418 349L230 117H461Q477 117 484 105T491 67V50Q491 24 484 12T461 0H63Q53 0 44 31Z" />
<glyph unicode="3" glyph-name="three" horiz-adv-x="535" d="M209 -8T159 0T72 26T36 74Q36 84 44 102T63 135T85 150Q91 150 111 140Q140 126 167 118T230 109Q275 109 302 134T329 206Q329 257 301 282T212 308H184Q168 308 161 320T154 358V376Q154 402 161
414T184 426H203Q251 426 278 448T306 509Q306 547 286 568T225 590Q192 590 170 584T128 567Q114 559 107 559Q92 559 75 586T57 635Q57 670 113 689T251 708Q345 708 400 661T456 533Q456 482 431 444T363 387V383Q421 361 450 314T479 204Q479 106 417 49T253
-8Q209 -8 159 0Z" />
<glyph unicode="4" glyph-name="four" horiz-adv-x="535" d="M302 -2T302 30V142H40Q28 142 16 177T3 235Q3 242 5 246L302 683Q310 695 324 698T363 702H390Q450 702 450 670V259H488Q504 259 511 247T518 209V192Q518 166 511 154T488 142H450V30Q450 -2 390
-2H362Q302 -2 302 30ZM302 259V413Q302 436 305 462T313 506L309 507L152 259H302Z" />
<glyph unicode="5" glyph-name="five" horiz-adv-x="535" d="M179 -8T134 1T64 27T38 64Q38 73 47 92T68 127T92 143Q95 143 117 134T169 117T233 109Q282 109 311 136T340 212Q340 267 311 295T215 323H106Q85 323 77 332T69 363L88 660Q90 681 99 690T130 700H425Q441
700 448 688T455 650V623Q455 602 448 593T425 583H223L213 440H239Q361 440 425 389T490 216Q490 136 453 86T358 14T234 -8Q179 -8 134 1Z" />
<glyph unicode="6" glyph-name="six" horiz-adv-x="535" d="M208 -8T155 18T67 103T33 253Q33 424 109 524T272 664T387 704Q403 704 414 689T431 653T437 621Q437 610 435 606T424 600Q348 577 290 526T207 403Q253 428 307 428Q350 428 395 407T472 339T504
216Q504 139 470 89T383 16T269 -8Q208 -8 155 18ZM306 109T330 138T355 212Q355 258 331 284T264 311Q228 311 185 287Q184 272 184 241Q184 171 207 140T270 109Q306 109 330 138Z" />
<glyph unicode="7" glyph-name="seven" horiz-adv-x="535" d="M85 -2T85 17Q85 24 91 36L339 583H78Q62 583 55 595T48 633V650Q48 676 55 688T78 700H474Q482 700 493 667T504 610Q504 603 502 597L239 18Q234 7 220 3T181 -2H144Q85 -2 85 17Z" />
<glyph unicode="8" glyph-name="eight" horiz-adv-x="535" d="M189 -8T135 20T55 95T29 201Q29 268 57 313T130 375Q95 399 76 433T56 519Q56 570 80 613T155 682T276 708Q339 708 386 685T458 622T483 534Q483 475 461 442T396 385Q506 335 506 192Q506 142 482
97T405 22T271 -8Q189 -8 135 20ZM339 468T339 524Q339 554 319 572T271 591Q242 591 222 573T202 524Q202 489 223 469T285 432Q339 468 339 524ZM310 109T333 137T356 200Q356 237 340 260T300 297T233 326Q206 306 192 279T178 210Q178 164 202 137T269 109Q310
109 333 137Z" />
<glyph unicode="9" glyph-name="nine" horiz-adv-x="535" d="M131 -5T120 10T103 46T97 78Q97 89 99 93T110 99Q186 120 244 172T327 296Q281 271 227 271Q184 271 139 292T62 360T30 483Q30 560 64 610T151 683T265 707Q326 707 379 681T467 596T501 446Q501
275 425 175T262 35T147 -5Q131 -5 120 10ZM306 388T349 412Q350 427 350 458Q350 528 327 559T264 590Q228 590 204 561T179 487Q179 441 203 415T270 388Q306 388 349 412Z" />
<glyph unicode=":" glyph-name="colon" horiz-adv-x="198" d="M23 369T23 401V493Q23 525 83 525H115Q175 525 175 493V401Q175 369 115 369H83Q23 369 23 401ZM23 -2T23 30V122Q23 154 83 154H115Q175 154 175 122V30Q175 -2 115 -2H83Q23 -2 23 30Z" />
<glyph unicode=";" glyph-name="semicolon" horiz-adv-x="198" d="M23 369T23 401V493Q23 525 83 525H115Q175 525 175 493V401Q175 369 115 369H83Q23 369 23 401ZM17 -125T3 -120T-12 -103Q-12 -93 -3 -70Q14 -25 23 11T32 110Q32 154 92 154H111Q141 154 156
142T171 110Q171 57 147 3T89 -88T33 -125Q17 -125 3 -120Z" />
<glyph unicode="&lt;" glyph-name="less" horiz-adv-x="560" d="M497 10T489 14L69 194Q54 201 48 210T41 236V255Q41 271 47 280T69 297L488 476Q494 479 503 479Q518 479 518 438V422Q518 373 488 361L196 245L489 129Q519 117 519 68V52Q519 10 504 10Q497 10 489 14Z" />
<glyph unicode="=" glyph-name="equal" horiz-adv-x="560" d="M54 267T47 279T40 317V324Q40 350 47 362T70 374H490Q506 374 513 362T520 324V317Q520 291 513 279T490 267H70Q54 267 47 279ZM54 87T47 99T40 137V144Q40 170 47 182T70 194H490Q506 194 513 182T520
144V137Q520 111 513 99T490 87H70Q54 87 47 99Z" />
<glyph unicode="&gt;" glyph-name="greater" horiz-adv-x="560" d="M40 10T40 52V68Q40 117 70 129L363 245L71 361Q41 373 41 422V438Q41 479 56 479Q65 479 71 476L490 297Q505 290 511 281T518 255V236Q518 220 512 211T490 194L70 14Q62 10 55 10Q40 10 40 52Z" />
<glyph unicode="?" glyph-name="question" horiz-adv-x="445" d="M141 222T130 228T118 251Q118 291 136 326T186 399Q201 417 216 432Q245 464 259 483T273 520Q273 576 199 576Q173 576 153 570T109 553Q93 545 87 545Q74 545 60 560T35 596T24 627Q24 667 83
687T212 708Q313 708 371 660T429 530Q429 476 405 439T335 362L318 347Q283 316 266 296T243 249Q240 234 228 228T190 222H167Q141 222 130 228ZM102 -2T102 30V122Q102 154 162 154H194Q254 154 254 122V30Q254 -2 194 -2H162Q102 -2 102 30Z" />
<glyph unicode="@" glyph-name="at" horiz-adv-x="974" d="M644 708T719 668T835 554T877 383Q877 294 846 220T762 102T644 58Q600 58 570 77T530 123Q513 94 483 76T417 58Q355 58 319 105T282 239Q282 318 305 379T371 474T467 508Q499 508 525 494T569 463Q575
486 585 494T621 503H633Q680 503 680 477L671 396Q649 191 649 177Q649 141 684 141Q718 141 748 174T795 263T813 383Q813 464 780 525T685 620T544 654Q438 654 350 599T210 449T158 240Q158 149 191 79T283 -30T420 -69Q463 -69 491 -63T545 -47Q566 -40 574
-40Q588 -40 588 -73Q588 -99 532 -111T420 -123Q324 -123 250 -78T135 50T94 240Q94 370 153 477T316 646T544 708Q644 708 719 668ZM533 267T537 307T550 387Q525 410 496 410Q454 410 431 368T407 247Q407 159 464 159Q498 159 529 207Q533 267 537 307Z" />
<glyph unicode="A" glyph-name="A" horiz-adv-x="613" d="M0 -2T0 20Q0 24 4 38L224 681Q232 702 281 702H333Q383 702 390 681L610 38Q613 28 613 20Q613 -2 563 -2H519Q470 -2 463 19L423 141H187L147 19Q140 -2 101 -2H61Q0 -2 0 20ZM380 273L323 451Q316 471
308 515H304Q303 509 300 489T289 451L230 273H380Z" />
<glyph unicode="B" glyph-name="B" horiz-adv-x="593" d="M95 0T86 9T76 40V660Q76 681 85 690T116 700H314Q436 700 493 653T550 523Q550 473 520 432T442 371L443 367Q502 355 540 308T578 203Q578 105 516 53T328 0H116Q95 0 86 9ZM299 421Q343 421 367 442T392
496Q392 570 301 570H230V421H299ZM328 131Q372 131 396 152T420 212Q420 251 392 270T312 290H230V131H328Z" />
<glyph unicode="C" glyph-name="C" horiz-adv-x="619" d="M206 -8T126 79T45 352Q45 708 379 708Q429 708 481 698T562 670Q588 655 588 638Q588 624 577 602T551 562T523 544Q520 544 499 553T448 569T376 576Q288 576 246 520T203 351Q203 123 374 123Q419 123
452 132T516 155Q532 163 538 163Q553 163 566 146T588 108T597 76Q597 50 562 30Q529 11 475 2T374 -8Q206 -8 126 79Z" />
<glyph unicode="D" glyph-name="D" horiz-adv-x="695" d="M95 0T86 9T76 40V660Q76 681 85 690T116 700H330Q485 700 567 610T650 350Q650 181 568 91T330 0H116Q95 0 86 9ZM330 131Q410 131 451 187T492 350Q492 457 451 513T330 569H231V131H330Z" />
<glyph unicode="E" glyph-name="E" horiz-adv-x="546" d="M96 0T87 9T77 40V660Q77 681 86 690T117 700H468Q484 700 491 688T498 650V619Q498 593 491 581T468 569H231V424H441Q457 424 464 412T471 374V343Q471 317 464 305T441 293H231V131H469Q485 131 492
119T499 81V50Q499 24 492 12T469 0H117Q96 0 87 9Z" />
<glyph unicode="F" glyph-name="F" horiz-adv-x="503" d="M76 -2T76 30V660Q76 681 85 690T116 700H445Q461 700 468 688T475 650V619Q475 593 468 581T445 569H230V393H438Q454 393 461 381T468 343V312Q468 286 461 274T438 262H230V30Q230 -2 170 -2H136Q76 -2 76 30Z" />
<glyph unicode="G" glyph-name="G" horiz-adv-x="672" d="M588 389T597 380T607 349V71Q607 26 532 9T374 -8Q206 -8 126 79T45 352Q45 708 379 708Q425 708 475 699T559 674T593 638Q593 624 582 602T556 562T528 544Q525 544 503 553T450 569T376 576Q288 576
246 520T203 351Q203 123 374 123Q414 123 452 130V257H364Q348 257 341 269T334 307V339Q334 365 341 377T364 389H567Q588 389 597 380Z" />
<glyph unicode="H" glyph-name="H" horiz-adv-x="733" d="M77 -2T77 30V670Q77 702 137 702H172Q232 702 232 670V423H502V670Q502 702 562 702H597Q657 702 657 670V30Q657 -2 597 -2H562Q502 -2 502 30V291H232V30Q232 -2 172 -2H137Q77 -2 77 30Z" />
<glyph unicode="I" glyph-name="I" horiz-adv-x="283" d="M64 -3T64 30V670Q64 703 124 703H159Q219 703 219 670V30Q219 -3 159 -3H124Q64 -3 64 30Z" />
<glyph unicode="J" glyph-name="J" horiz-adv-x="402" d="M84 -8T42 1T0 38Q0 61 10 95T41 131Q45 131 60 127T97 123Q142 123 161 147T181 227V670Q181 703 241 703H276Q336 703 336 670V202Q336 103 284 48T124 -8Q84 -8 42 1Z" />
<glyph unicode="K" glyph-name="K" horiz-adv-x="576" d="M69 -2T69 30V670Q69 702 129 702H164Q224 702 224 670V402L228 401L402 683Q413 702 462 702H509Q565 702 565 687Q565 678 557 666L364 370L583 34Q591 22 591 13Q591 -2 535 -2H477Q427 -2 416 17L228
321L224 320V30Q224 -2 164 -2H129Q69 -2 69 30Z" />
<glyph unicode="L" glyph-name="L" horiz-adv-x="484" d="M95 0T86 9T76 40V670Q76 702 136 702H170Q230 702 230 670V131H446Q462 131 469 119T476 81V50Q476 24 469 12T446 0H116Q95 0 86 9Z" />
<glyph unicode="M" glyph-name="M" horiz-adv-x="843" d="M381 167T367 186L244 406Q231 428 222 445L218 444V395V30Q218 -2 158 -2H129Q69 -2 69 30V670Q69 702 129 702H182Q230 702 245 675L411 379L421 362L430 379L599 675Q614 702 662 702H714Q774 702 774
670V30Q774 -2 714 -2H685Q625 -2 625 30V395V444L621 445Q612 428 599 406L476 186Q462 167 436 167H407Q381 167 367 186Z" />
<glyph unicode="N" glyph-name="N" horiz-adv-x="719" d="M69 -2T69 30V670Q69 702 129 702H172Q196 702 212 697T238 675L463 328Q483 299 499 269L503 270Q501 293 501 338V670Q501 702 561 702H590Q650 702 650 670V30Q650 -2 590 -2H552Q528 -2 512 3T486
25L256 377Q236 406 220 436L216 435Q218 412 218 367V30Q218 -2 158 -2H129Q69 -2 69 30Z" />
<glyph unicode="O" glyph-name="O" horiz-adv-x="731" d="M211 -8T128 84T45 350Q45 523 128 615T366 708Q521 708 603 616T686 350Q686 177 604 85T366 -8Q211 -8 128 84ZM446 123T487 181T528 350Q528 461 487 518T366 576Q286 576 245 519T203 350Q203 239
244 181T366 123Q446 123 487 181Z" />
<glyph unicode="P" glyph-name="P" horiz-adv-x="570" d="M69 -2T69 30V660Q69 681 78 690T109 700H319Q413 700 485 655T557 481Q557 393 515 345T421 279T329 262H223V30Q223 -2 163 -2H129Q69 -2 69 30ZM312 394Q348 394 373 413T399 481Q399 530 374 549T312
569H223V394H312Z" />
<glyph unicode="Q" glyph-name="Q" horiz-adv-x="731" d="M637 -146T611 -136T575 -122Q504 -93 227 16Q138 51 92 136T45 350Q45 523 128 615T366 708Q521 708 603 616T686 350Q686 232 646 151T529 31V27L682 -28Q696 -33 696 -44Q696 -54 688 -79T668 -125T641
-146Q637 -146 611 -136ZM446 119T487 178T528 350Q528 461 487 518T366 576Q286 576 245 519T203 350Q203 237 244 178T366 119Q446 119 487 178Z" />
<glyph unicode="R" glyph-name="R" horiz-adv-x="610" d="M69 -2T69 30V660Q69 681 78 690T109 700H304Q553 700 553 512Q553 456 522 415T436 353V349Q455 342 475 316T508 257L596 37Q601 24 601 18Q601 9 586 4T541 -2H500Q451 -2 442 19L363 214Q346 247 327
260T262 274H223V30Q223 -2 163 -2H129Q69 -2 69 30ZM318 407Q349 407 372 432T395 493Q395 528 373 548T311 569H223V407H318Z" />
<glyph unicode="S" glyph-name="S" horiz-adv-x="500" d="M186 -8T133 6T50 42Q22 61 22 80Q22 95 33 116T59 153T84 169Q90 169 112 157Q144 141 170 132T231 123Q270 123 297 138T325 193Q325 225 300 243T217 285L171 305Q108 335 72 379T36 506Q36 574 69
619T157 686T273 708Q324 708 365 698T431 670Q453 654 453 638Q453 624 444 603T422 567T398 551Q393 551 382 556T362 564Q326 576 287 576Q235 576 215 559T194 520Q194 494 208 477T242 450T301 422Q358 398 394 377T456 315T483 211Q483 134 451 85T367 14T257
-8Q186 -8 133 6Z" />
<glyph unicode="T" glyph-name="T" horiz-adv-x="549" d="M197 -2T197 30V569H38Q22 569 15 581T8 619V650Q8 676 15 688T38 700H511Q527 700 534 688T541 650V619Q541 593 534 581T511 569H352V30Q352 -2 292 -2H257Q197 -2 197 30Z" />
<glyph unicode="U" glyph-name="U" horiz-adv-x="712" d="M218 -8T142 55T66 234V670Q66 702 126 702H160Q220 702 220 670V244Q220 191 258 157T356 123Q416 123 454 157T493 244V670Q493 702 553 702H586Q646 702 646 670V234Q646 119 570 56T356 -8Q218 -8 142 55Z" />
<glyph unicode="V" glyph-name="V" horiz-adv-x="617" d="M234 -2T227 19L11 662Q7 676 7 680Q7 702 68 702H103Q153 702 162 673L286 276Q305 215 308 185H312Q315 215 334 276L462 673Q472 702 521 702H550Q610 702 610 680Q610 673 607 662L391 19Q384 -2 335
-2H283Q234 -2 227 19Z" />
<glyph unicode="W" glyph-name="W" horiz-adv-x="910" d="M200 -2T187 4T169 24L12 661Q10 673 10 676Q10 702 72 702H98Q158 702 165 671L240 349Q249 308 256 254T266 158H270Q276 205 286 260T305 350L387 681Q390 693 403 697T442 702H480Q505 702 518 698T535
681L614 349Q625 299 634 245T645 158H649Q653 195 662 250T683 351L760 671Q767 702 827 702H838Q900 702 900 676Q900 667 898 661L737 24Q730 -2 680 -2H607Q556 -2 551 24L477 337L456 463H452Q436 363 430 337L354 25Q347 -2 297 -2H225Q200 -2 187 4Z" />
<glyph unicode="X" glyph-name="X" horiz-adv-x="611" d="M8 -2T8 17Q8 26 18 42L224 365L41 658Q31 675 31 683Q31 692 47 697T95 702H136Q185 702 196 683L310 497L430 683Q438 695 452 698T491 702H530Q593 702 593 683Q593 672 583 658L394 363L594 42Q603
27 603 17Q603 -2 540 -2H501Q452 -2 441 17L308 232L170 17Q162 5 149 2T109 -2H71Q8 -2 8 17Z" />
<glyph unicode="Y" glyph-name="Y" horiz-adv-x="559" d="M203 -2T203 30V336L4 657Q-6 674 -6 682Q-6 702 58 702H101Q150 702 161 683L283 469L406 683Q417 702 466 702H502Q565 702 565 682Q565 672 556 657L357 333V30Q357 -2 297 -2H263Q203 -2 203 30Z" />
<glyph unicode="Z" glyph-name="Z" horiz-adv-x="616" d="M54 0T41 33T27 89Q27 95 29 99L364 569H86Q70 569 63 581T56 619V650Q56 676 63 688T86 700H543Q554 700 567 665T580 608Q580 600 575 594L245 131H550Q566 131 573 119T580 81V50Q580 24 573 12T550
0H66Q54 0 41 33Z" />
<glyph unicode="[" glyph-name="bracketleft" horiz-adv-x="291" d="M84 -138T75 -129T65 -98V728Q65 749 74 758T105 768H231Q247 768 254 759T261 728V713Q261 692 254 683T231 673H180V-43H231Q247 -43 254 -52T261 -83V-98Q261 -119 254 -128T231 -138H105Q84
-138 75 -129Z" />
<glyph unicode="\" glyph-name="backslash" horiz-adv-x="422" d="M330 -79T317 -74T297 -54L7 664Q0 680 0 686Q0 702 53 702H66Q90 702 104 697T125 677L414 -41Q422 -61 422 -63Q422 -79 373 -79H355Q330 -79 317 -74Z" />
<glyph unicode="]" glyph-name="bracketright" horiz-adv-x="291" d="M45 -138T38 -129T31 -98V-83Q31 -62 38 -53T61 -43H112V673H61Q45 673 38 682T31 713V728Q31 749 38 758T61 768H187Q208 768 217 759T227 728V-98Q227 -119 218 -128T187 -138H61Q45 -138 38 -129Z" />
<glyph unicode="^" glyph-name="asciicircum" horiz-adv-x="450" d="M35 318T35 333Q35 336 39 348L168 656Q180 686 210 686H241Q271 686 283 656L412 348Q416 340 416 333Q416 318 384 318H363Q324 318 311 348L225 555L139 348Q126 318 88 318H67Q35 318 35 333Z" />
<glyph unicode="_" glyph-name="underscore" horiz-adv-x="535" d="M-6 -138T-13 -126T-20 -88V-81Q-20 -55 -13 -43T10 -31H525Q541 -31 548 -43T555 -81V-88Q555 -114 548 -126T525 -138H10Q-6 -138 -13 -126Z" />
<glyph unicode="`" glyph-name="grave" horiz-adv-x="191" d="M127 572T109 579T76 602L19 665Q0 686 0 701Q0 711 11 714T53 718Q98 718 113 712T138 687L178 615Q181 609 186 601T191 587Q191 580 183 576T150 572Q127 572 109 579Z" />
<glyph unicode="a" glyph-name="a" horiz-adv-x="545" d="M113 -8T78 32T42 138Q42 218 100 271T329 324V357Q329 386 311 400T251 414Q217 414 192 407T146 391T123 382Q113 382 101 397T80 431T71 462Q71 479 96 495T165 521T262 531Q375 531 426 487T477 364V176Q477
130 479 106T486 53Q489 40 489 31Q489 15 449 7T377 -1Q359 -1 352 13T342 45T337 68Q331 57 313 40T263 7T190 -8Q113 -8 78 32ZM267 109T292 127T329 172V227Q189 227 189 153Q189 133 202 121T239 109Q267 109 292 127Z" />
<glyph unicode="b" glyph-name="b" horiz-adv-x="569" d="M295 -8T260 13T206 67Q202 46 192 24Q185 9 173 4T138 -2H126Q66 -2 66 30V722Q66 754 126 754H154Q214 754 214 722V500Q257 531 316 531Q416 531 471 459T527 262Q527 177 503 116T437 24T340 -8Q295
-8 260 13ZM377 113T377 262Q377 414 284 414Q248 414 214 395V172Q248 113 296 113Q377 113 377 262Z" />
<glyph unicode="c" glyph-name="c" horiz-adv-x="485" d="M166 -8T104 57T42 258Q42 394 104 462T299 531Q360 531 412 513T465 462Q465 447 445 416T412 385Q408 385 394 392Q374 402 355 408T307 414Q248 414 221 377T194 262Q194 184 219 147T301 109Q327 109
347 114T381 125T399 132Q415 138 417 138Q427 138 439 124T460 91T469 62Q469 37 436 21T360 -1T294 -8Q166 -8 104 57Z" />
<glyph unicode="d" glyph-name="d" horiz-adv-x="565" d="M175 -8T133 23T66 116T42 262Q42 386 97 458T253 531Q312 531 355 500V722Q355 754 415 754H443Q503 754 503 722V176Q503 130 505 106T512 53Q515 40 515 31Q515 15 475 7T403 -1Q385 -1 378 13T368
44T363 67Q345 34 310 13T229 -8Q175 -8 133 23ZM321 113T355 172V395Q321 414 285 414Q192 414 192 262Q192 113 273 113Q321 113 355 172Z" />
<glyph unicode="e" glyph-name="e" horiz-adv-x="539" d="M171 -8T107 62T42 258Q42 399 106 465T285 531Q396 531 448 459T501 273Q501 261 481 238T450 214H195Q200 157 229 133T310 109Q338 109 361 115T409 132Q425 140 431 140Q441 140 453 126T474 93T483
64Q483 41 452 25T378 0T303 -8Q171 -8 107 62ZM357 313Q357 359 339 386T285 414Q211 414 195 313H357Z" />
<glyph unicode="f" glyph-name="f" horiz-adv-x="325" d="M79 -2T79 30V406H61Q45 406 38 418T31 456V473Q31 499 38 511T61 523H79V598Q79 760 225 760Q325 760 325 711Q325 705 321 687T310 654T294 639Q288 639 278 641T263 643Q244 643 236 633T227 600V523H277Q293
523 300 511T307 473V456Q307 430 300 418T277 406H227V30Q227 -2 167 -2H139Q79 -2 79 30Z" />
<glyph unicode="g" glyph-name="g" horiz-adv-x="546" d="M24 -212T24 -74Q24 -35 47 -5T115 42L116 46Q95 56 84 76T73 121Q73 176 133 211Q52 254 52 353Q52 444 111 487T267 531Q306 531 344 523H505Q521 523 528 511T535 473V456Q535 409 511 409Q501 409
486 412T463 418L461 414Q470 404 476 387T482 353Q482 267 426 225T278 183Q234 183 221 176T208 151Q208 133 231 126T309 111Q327 109 365 103Q436 89 478 58T520 -42Q520 -93 488 -131T398 -191T262 -212Q24 -212 24 -74ZM300 290T321 306T342 357Q342 390
321 407T267 424Q234 424 213 407T192 357Q192 323 213 307T267 290Q300 290 321 306ZM324 -95T350 -82T376 -46Q376 -23 343 -13T222 4Q197 -5 183 -19T168 -50Q168 -71 193 -83T273 -95Q324 -95 350 -82Z" />
<glyph unicode="h" glyph-name="h" horiz-adv-x="565" d="M66 -2T66 30V722Q66 754 126 754H154Q214 754 214 722V463Q239 493 275 512T355 531Q431 531 468 492T506 369V30Q506 -2 446 -2H418Q358 -2 358 30V347Q358 409 294 409Q267 409 247 392T214 351V30Q214
-2 154 -2H126Q66 -2 66 30Z" />
<glyph unicode="i" glyph-name="i" horiz-adv-x="265" d="M59 -2T59 30V493Q59 525 119 525H147Q207 525 207 493V30Q207 -2 147 -2H119Q59 -2 59 30ZM59 574T59 606V684Q59 716 133 716Q207 716 207 684V606Q207 574 133 574Q59 574 59 606Z" />
<glyph unicode="j" glyph-name="j" horiz-adv-x="276" d="M13 -212T-9 -201T-32 -160Q-32 -140 -21 -116T4 -91Q9 -91 18 -93T34 -95Q53 -95 61 -85T70 -52V493Q70 525 130 525H158Q218 525 218 493V-50Q218 -129 178 -170T72 -212Q13 -212 -9 -201ZM70 574T70
606V684Q70 716 144 716Q218 716 218 684V606Q218 574 144 574Q70 574 70 606Z" />
<glyph unicode="k" glyph-name="k" horiz-adv-x="521" d="M516 22T516 13Q516 -2 459 -2H417Q368 -2 357 17L218 247L214 246V30Q214 -2 154 -2H126Q66 -2 66 30V722Q66 754 126 754H154Q214 754 214 722V326L218 325L339 506Q347 518 361 521T400 525H437Q493
525 493 510Q493 502 484 490L345 292L508 34Q516 22 516 13Z" />
<glyph unicode="l" glyph-name="l" horiz-adv-x="297" d="M63 -8T63 154V722Q63 754 123 754H151Q211 754 211 722V152Q211 129 219 119T247 109Q252 109 260 111T274 113Q283 113 290 98T301 65T305 41Q305 -8 209 -8Q63 -8 63 154Z" />
<glyph unicode="m" glyph-name="m" horiz-adv-x="848" d="M711 531T746 492T782 369V30Q782 -2 722 -2H694Q634 -2 634 30V347Q634 378 621 393T575 409Q529 409 496 352V30Q496 -2 436 -2H408Q348 -2 348 30V347Q348 378 335 393T289 409Q262 409 242 392T210
351V30Q210 -2 150 -2H122Q62 -2 62 30V347Q62 391 60 414T53 467Q50 481 50 488Q50 504 90 512T162 520Q180 520 187 507T197 477T202 455Q226 487 265 509T350 531Q402 531 434 513T482 455Q507 487 548 509T636 531Q711 531 746 492Z" />
<glyph unicode="n" glyph-name="n" horiz-adv-x="557" d="M62 -2T62 30V347Q62 391 60 414T53 467Q50 481 50 488Q50 504 90 512T162 520Q180 520 187 507T197 477T202 455Q226 487 266 509T351 531Q426 531 462 492T498 369V30Q498 -2 438 -2H410Q350 -2 350
30V347Q350 378 336 393T290 409Q263 409 243 392T210 351V30Q210 -2 150 -2H122Q62 -2 62 30Z" />
<glyph unicode="o" glyph-name="o" horiz-adv-x="569" d="M166 -8T104 61T42 262Q42 393 104 462T285 531Q404 531 465 462T527 262Q527 131 466 62T285 -8Q166 -8 104 61ZM332 109T354 147T377 262Q377 338 355 376T285 414Q238 414 215 376T192 262Q192 109
285 109Q332 109 354 147Z" />
<glyph unicode="p" glyph-name="p" horiz-adv-x="573" d="M70 -206T70 -174V347Q70 391 68 414T61 467Q58 481 58 488Q58 504 98 512T170 520Q188 520 195 507T205 478T210 456Q228 489 263 510T344 531Q398 531 440 500T507 407T531 261Q531 137 476 65T320 -8Q261
-8 218 23V-174Q218 -206 158 -206H130Q70 -206 70 -174ZM381 109T381 261Q381 410 300 410Q252 410 218 351V128Q252 109 288 109Q381 109 381 261Z" />
<glyph unicode="q" glyph-name="q" horiz-adv-x="566" d="M360 -206T360 -174V23Q317 -8 258 -8Q156 -8 99 64T42 261Q42 346 66 407T134 499T234 531Q279 531 314 510T368 456L378 499Q382 514 395 519T436 525H448Q508 525 508 493V-174Q508 -206 448 -206H420Q360
-206 360 -174ZM326 109T360 128V351Q326 410 278 410Q192 410 192 261Q192 109 290 109Q326 109 360 128Z" />
<glyph unicode="r" glyph-name="r" horiz-adv-x="366" d="M62 -2T62 30V347Q62 391 60 414T53 467Q50 481 50 488Q50 504 90 512T162 520Q180 520 187 507T197 477T202 455Q221 490 246 510T311 531Q345 531 356 518T368 477Q368 456 359 425T337 393Q331 393
316 397T290 401Q263 401 243 386T210 351V30Q210 -2 150 -2H122Q62 -2 62 30Z" />
<glyph unicode="s" glyph-name="s" horiz-adv-x="413" d="M132 -8T80 11T28 60Q28 80 47 108T81 137Q89 137 103 129Q124 120 141 115T182 109Q212 109 227 120T243 151Q243 171 226 182T162 213Q127 228 102 243T59 289T40 367Q40 444 89 487T222 531Q275 531
323 516T372 473Q372 454 357 424T329 394Q325 394 299 404T240 415Q187 415 187 378Q187 356 205 345T270 316Q322 297 356 264T390 163Q390 85 338 39T194 -8Q132 -8 80 11Z" />
<glyph unicode="t" glyph-name="t" horiz-adv-x="342" d="M77 -8T77 154V406H61Q45 406 38 418T31 456V473Q31 499 38 511T61 523H77L90 618Q95 650 144 650H175Q225 650 225 618V523H274Q290 523 297 511T304 473V456Q304 430 297 418T274 406H225V152Q225 129
233 119T261 109Q266 109 274 111T288 113Q297 113 304 98T315 65T319 41Q319 -8 223 -8Q77 -8 77 154Z" />
<glyph unicode="u" glyph-name="u" horiz-adv-x="557" d="M131 -8T95 31T59 154V493Q59 525 119 525H147Q207 525 207 493V176Q207 145 221 130T267 114Q294 114 314 131T347 172V493Q347 525 407 525H435Q495 525 495 493V176Q495 130 497 106T504 53Q507 40
507 31Q507 15 467 7T395 -1Q377 -1 370 13T360 45T355 68Q331 36 292 14T206 -8Q131 -8 95 31Z" />
<glyph unicode="v" glyph-name="v" horiz-adv-x="485" d="M179 -2T171 19L12 485Q8 499 8 503Q8 525 69 525H102Q151 525 158 504L208 346Q234 266 245 188H249Q258 260 286 346L336 504Q343 525 392 525H417Q477 525 477 503Q477 496 474 485L315 19Q308 -2 259
-2H227Q179 -2 171 19Z" />
<glyph unicode="w" glyph-name="w" horiz-adv-x="747" d="M152 -2T146 19L20 484Q18 490 18 499Q18 525 80 525Q120 525 138 520T159 504L218 258Q231 206 233 175H237Q240 202 255 261L314 504Q320 525 369 525H393Q415 525 430 520T448 504L508 256Q522 196
524 171H526Q534 223 543 259L603 504Q608 525 662 525Q724 525 724 499Q724 490 722 484L604 19Q602 9 587 4T549 -2H500Q451 -2 445 19L389 239Q379 281 375 323H371Q369 286 358 238L305 19Q303 9 288 4T250 -2H201Q152 -2 146 19Z" />
<glyph unicode="x" glyph-name="x" horiz-adv-x="485" d="M5 -2T5 16Q5 24 16 41L167 265L25 481Q14 498 14 507Q14 525 77 525H109Q135 525 148 522T170 506L231 407L246 383L263 409L325 506Q333 518 346 521T386 525H415Q478 525 478 507Q478 499 467 482L321
266L469 42Q480 25 480 16Q480 -2 417 -2H385Q359 -2 346 1T324 17L255 127L242 148L229 127L159 17Q151 5 138 2T98 -2H68Q5 -2 5 16Z" />
<glyph unicode="y" glyph-name="y" horiz-adv-x="481" d="M477 525T477 503Q477 496 474 485L245 -185Q238 -206 189 -206H172Q112 -206 112 -185Q112 -176 116 -167L179 2L14 485Q10 499 10 503Q10 525 71 525H103Q152 525 159 504L218 319Q227 291 246 198H250Q270
294 278 319L337 504Q344 525 393 525H417Q477 525 477 503Z" />
<glyph unicode="z" glyph-name="z" horiz-adv-x="489" d="M47 0T37 27T27 76Q27 86 30 90L259 406H73Q57 406 50 418T43 456V473Q43 499 50 511T73 523H427Q435 523 445 495T456 446Q456 436 453 431L225 117H430Q446 117 453 105T460 67V50Q460 24 453 12T430
0H56Q47 0 37 27Z" />
<glyph unicode="{" glyph-name="braceleft" horiz-adv-x="274" d="M149 -138T122 -106T94 -22V146Q94 196 84 222T47 259Q32 268 25 279T18 309V321Q18 340 25 351T47 371Q73 382 83 408T94 484V652Q94 703 121 735T193 768H232Q248 768 255 759T262 728V714Q262
674 236 674H238Q222 674 216 666T209 638V468Q209 413 192 374T141 315Q174 296 191 257T209 162V-8Q209 -44 233 -44H234Q248 -45 255 -54T262 -84V-98Q262 -119 255 -128T232 -138H193Q149 -138 122 -106Z" />
<glyph unicode="|" glyph-name="bar" horiz-adv-x="250" d="M92 -138T80 -131T68 -108V738Q68 754 80 761T118 768H133Q159 768 171 761T183 738V-108Q183 -124 171 -131T133 -138H118Q92 -138 80 -131Z" />
<glyph unicode="}" glyph-name="braceright" horiz-adv-x="274" d="M33 -138T26 -129T19 -98V-84Q19 -63 25 -54T47 -44H48Q72 -44 72 -8V162Q72 218 89 257T140 315Q107 334 90 373T72 468V638Q72 658 66 666T45 674H44Q19 674 19 714V728Q19 749 26 758T49 768H88Q132
768 159 736T187 652V484Q187 434 197 408T234 371Q249 362 256 351T263 321V309Q263 290 256 279T234 259Q208 248 198 222T187 146V-22Q187 -73 160 -105T88 -138H49Q33 -138 26 -129Z" />
<glyph unicode="~" glyph-name="asciitilde" horiz-adv-x="560" d="M93 208T80 214T66 231Q66 244 71 259Q83 292 114 315T188 339Q232 339 291 318Q297 316 316 311T352 302T385 299Q403 299 414 306T438 327Q450 341 457 341Q466 341 480 334T494 317Q494 301
488 287Q474 253 447 232T380 211Q348 211 322 217T262 234Q237 243 221 247T188 251Q166 251 151 243T121 220Q107 208 102 208Q93 208 80 214Z" />
<glyph unicode="&#xa0;" glyph-name="uni00A0" horiz-adv-x="240" />
<glyph unicode="&#xa1;" glyph-name="exclamdown" horiz-adv-x="294" d="M75 369T75 401V493Q75 525 135 525H167Q227 525 227 493V401Q227 369 167 369H135Q75 369 75 401ZM75 -180T60 -173T44 -152Q44 -139 78 139Q91 244 94 268Q96 285 106 292T145 300H156Q185
300 196 293T207 268V-148Q207 -180 147 -180H104Q75 -180 60 -173Z" />
<glyph unicode="&#xa2;" glyph-name="cent" horiz-adv-x="470" d="M452 35T414 19T325 -4V-56Q325 -81 299 -81H294Q268 -81 268 -56V-8Q145 -6 85 60T25 258Q25 390 84 458T268 531V562Q268 587 294 587H299Q325 587 325 562V528Q376 522 412 505T448 462Q448
447 428 416T395 385Q391 385 377 392Q350 406 325 411V113Q345 117 361 123T382 132Q398 138 400 138Q410 138 422 124T443 91T452 62Q452 35 414 19ZM177 190T199 153T268 110V413Q221 406 199 369T177 262Q177 190 199 153Z" />
<glyph unicode="&#xa3;" glyph-name="sterling" horiz-adv-x="530" d="M74 0T65 9T55 40V59Q55 71 62 79T86 101Q108 119 119 134T131 175V311H98Q82 311 75 323T68 361V378Q68 404 75 416T98 428H131V502Q131 708 361 708Q471 708 471 663Q471 637 458 613T431
588Q428 588 410 592T367 596Q321 596 299 575T276 507V428H384Q400 428 407 416T414 378V361Q414 335 407 323T384 311H276V251Q276 158 235 117H458Q474 117 481 105T488 67V50Q488 24 481 12T458 0H95Q74 0 65 9Z" />
<glyph unicode="&#xa4;" glyph-name="currency" horiz-adv-x="550" d="M110 72T98 84L68 114Q56 126 56 139Q56 152 68 164L90 186Q63 234 63 289Q63 348 92 395L65 422Q53 434 53 447Q53 460 65 472L95 502Q107 514 120 514Q133 514 145 502L173 474Q222 500
274 500Q328 500 377 473L406 502Q418 514 431 514Q444 514 456 502L486 472Q498 460 498 447Q498 434 486 422L457 393Q485 345 485 289Q485 237 459 188L483 164Q495 152 495 139Q495 126 483 114L453 84Q441 72 428 72Q415 72 403 84L380 107Q333 78 274 78Q218
78 169 105L148 84Q136 72 123 72Q110 72 98 84ZM315 192T343 220T371 289Q371 330 343 358T274 386Q234 386 206 358T177 289Q177 249 205 221T274 192Q315 192 343 220Z" />
<glyph unicode="&#xa5;" glyph-name="yen" horiz-adv-x="600" d="M586 672T577 657L423 406H508Q524 406 531 399T538 376V362Q538 331 508 331H378V269H508Q524 269 531 262T538 239V224Q538 208 531 201T508 194H378V30Q378 -2 318 -2H284Q224 -2 224 30V194H91Q75
194 68 201T61 224V239Q61 255 68 262T91 269H224V332H91Q75 332 68 339T61 362V376Q61 392 68 399T91 406H181L25 657Q15 674 15 682Q15 702 79 702H122Q171 702 182 683L304 469L427 683Q438 702 487 702H523Q586 702 586 682Q586 672 577 657Z" />
<glyph unicode="&#xa6;" glyph-name="brokenbar" horiz-adv-x="250" d="M68 380T68 412V738Q68 770 118 770H133Q183 770 183 738V412Q183 380 133 380H118Q68 380 68 412ZM68 -140T68 -108V218Q68 250 118 250H133Q183 250 183 218V-108Q183 -140 133 -140H118Q68
-140 68 -108Z" />
<glyph unicode="&#xa7;" glyph-name="section" horiz-adv-x="429" d="M161 -7T111 6T60 56Q60 63 67 81T84 115T103 130Q106 130 131 120T188 109Q242 109 242 140Q242 158 226 168T174 191Q169 194 164 195T154 199Q103 220 73 253T42 350Q42 414 79 459Q41 492
41 554Q41 626 90 667T225 708Q272 708 322 695T373 645Q373 638 366 620T349 586T330 571Q327 571 302 581T245 592Q191 592 191 561Q191 543 206 533T255 511L282 500Q332 479 361 447T391 351Q391 285 354 242Q392 206 392 147Q392 75 343 34T208 -7Q161 -7
111 6ZM261 312T261 335Q261 364 241 379T181 409Q172 392 172 366Q172 337 192 322T252 292Q261 312 261 335Z" />
<glyph unicode="&#xa8;" glyph-name="dieresis" horiz-adv-x="306" d="M29 581T15 588T0 613V677Q0 694 14 701T62 709Q95 709 109 702T124 677V613Q124 596 110 589T62 581Q29 581 15 588ZM211 581T197 588T182 613V677Q182 694 196 701T244 709Q277 709 291
702T306 677V613Q306 596 292 589T244 581Q211 581 197 588Z" />
<glyph unicode="&#xa9;" glyph-name="copyright" horiz-adv-x="739" d="M273 -8T191 40T60 170T12 350Q12 447 60 529T190 660T370 708Q467 708 549 660T680 530T728 350Q728 253 680 171T550 40T370 -8Q273 -8 191 40ZM450 56T517 95T624 202T664 350Q664 430
625 497T518 604T370 644Q290 644 223 605T116 498T76 350Q76 270 115 203T222 96T370 56Q450 56 517 95ZM289 152T244 201T199 353Q199 552 385 552Q426 552 464 541T502 513Q502 500 489 480T466 460Q464 460 444 469T384 478Q287 478 287 353Q287 225 383 225Q421
225 446 236T474 248Q486 248 496 229T507 199Q507 176 466 164T383 152Q289 152 244 201Z" />
<glyph unicode="&#xaa;" glyph-name="ordfeminine" horiz-adv-x="319" d="M76 440T59 460T41 514Q41 605 182 605V621Q182 634 174 640T146 646Q121 646 103 640T82 633Q74 633 66 649T57 674Q57 687 85 697T155 708Q209 708 234 686T260 625V531Q260 494 263
479T266 459Q266 451 245 447T208 442Q200 442 197 449T192 465T189 477Q184 467 164 454T113 440Q76 440 59 460ZM153 502T165 509T182 529V556Q119 556 119 522Q119 513 124 508T140 502Q153 502 165 509Z" />
<glyph unicode="&#xab;" glyph-name="guillemotleft" horiz-adv-x="470" d="M179 46T165 61L38 214Q29 224 26 234T22 258Q22 272 25 282T38 302L165 455Q178 469 192 469Q208 469 229 453T251 420Q251 410 242 398L132 258L242 118Q251 106 251 95Q251 80 230
63T192 46Q179 46 165 61ZM378 46T364 61L237 214Q228 224 225 234T221 258Q221 272 224 282T237 302L364 455Q377 469 391 469Q407 469 428 453T450 420Q450 410 441 398L331 258L441 118Q450 106 450 95Q450 80 429 63T391 46Q378 46 364 61Z" />
<glyph unicode="&#xac;" glyph-name="logicalnot" horiz-adv-x="560" d="M415 72T415 104V242H60Q44 242 37 254T30 292V299Q30 325 37 337T60 349H490Q511 349 520 340T530 309V104Q530 72 480 72H465Q415 72 415 104Z" />
<glyph unicode="&#xad;" glyph-name="uni00AD" horiz-adv-x="320" d="M42 212T35 224T28 262V269Q28 295 35 307T58 319H262Q278 319 285 307T292 269V262Q292 236 285 224T262 212H58Q42 212 35 224Z" />
<glyph unicode="&#xae;" glyph-name="registered" horiz-adv-x="739" d="M273 -8T191 40T60 170T12 350Q12 447 60 529T190 660T370 708Q467 708 549 660T680 530T728 350Q728 253 680 171T550 40T370 -8Q273 -8 191 40ZM450 56T517 95T624 202T664 350Q664 430
625 497T518 604T370 644Q290 644 223 605T116 498T76 350Q76 270 115 203T222 96T370 56Q450 56 517 95ZM243 156T243 174V526Q243 548 265 548H374Q513 548 513 443Q513 412 495 389T447 354V350Q458 345 470 332T488 301L537 178Q540 171 540 167Q540 156 507
156H484Q456 156 451 168L407 277Q398 295 387 302T351 310H329V174Q329 156 295 156H277Q243 156 243 174ZM382 384Q399 384 412 398T425 432Q425 452 413 463T378 475H329V384H382Z" />
<glyph unicode="&#xaf;" glyph-name="overscore" horiz-adv-x="305" d="M14 597T7 606T0 637V652Q0 673 7 682T30 692H275Q291 692 298 683T305 652V637Q305 616 298 607T275 597H30Q14 597 7 606Z" />
<glyph unicode="&#xb0;" glyph-name="degree" horiz-adv-x="345" d="M136 443T106 460T58 508T40 575Q40 611 58 641T106 690T172 708Q208 708 238 690T287 642T305 575Q305 539 287 509T239 461T172 443Q136 443 106 460ZM200 505T220 525T240 575Q240 604 220
625T172 646Q144 646 125 625T105 575Q105 546 124 526T172 505Q200 505 220 525Z" />
<glyph unicode="&#xb1;" glyph-name="plusminus" horiz-adv-x="560" d="M246 140T234 147T222 170V312H70Q54 312 47 324T40 362V369Q40 395 47 407T70 419H222V573Q222 589 234 596T272 603H286Q312 603 324 596T336 573V419H490Q506 419 513 407T520 369V362Q520
336 513 324T490 312H336V170Q336 154 324 147T286 140H272Q246 140 234 147ZM54 0T47 12T40 50V57Q40 83 47 95T70 107H490Q506 107 513 95T520 57V50Q520 24 513 12T490 0H70Q54 0 47 12Z" />
<glyph unicode="&#xb2;" glyph-name="uni00B2" horiz-adv-x="310" d="M31 350T26 368T20 401Q20 407 27 416L170 591Q192 618 192 647Q192 670 177 682T138 695Q122 695 110 690T85 677T69 669Q56 669 46 683T36 710Q36 734 71 748T152 763Q213 763 246 732T280
649Q280 599 244 554L134 418H269Q287 418 287 389V379Q287 350 269 350H39Q31 350 26 368Z" />
<glyph unicode="&#xb3;" glyph-name="uni00B3" horiz-adv-x="310" d="M103 343T61 355T19 391Q19 402 28 419T48 436Q51 436 65 429T96 417T133 412Q160 412 175 427T191 469Q191 499 175 514T122 529H106Q88 529 88 558V569Q88 598 106 598H117Q145 598 161 611T178
647Q178 669 166 681T130 694Q99 694 82 685T61 676Q52 676 42 692T31 721Q31 742 64 753T145 764Q201 764 233 736T266 661Q266 631 252 609T211 575V573Q245 560 262 533T279 468Q279 410 243 377T147 343Q103 343 61 355Z" />
<glyph unicode="&#xb4;" glyph-name="acute" horiz-adv-x="191" d="M17 572T9 576T0 587Q0 592 5 600T13 615L53 687Q63 706 78 712T138 718Q168 718 179 715T191 701Q191 687 172 665L115 602Q100 586 82 579T41 572Q17 572 9 576Z" />
<glyph unicode="&#xb5;" glyph-name="uni00B5" horiz-adv-x="566" d="M501 130T503 106T510 53Q513 40 513 31Q513 15 473 7T401 -1Q383 -1 376 13T366 45T361 68Q338 37 299 15T221 -8Q214 -8 202 -6Q209 -43 211 -80T213 -174Q213 -206 153 -206H125Q65 -206
65 -174V493Q65 525 125 525H153Q213 525 213 493V176Q213 145 227 130T273 114Q300 114 320 131T353 172V493Q353 525 413 525H441Q501 525 501 493V176Q501 130 503 106Z" />
<glyph unicode="&#xb6;" glyph-name="paragraph" horiz-adv-x="515" d="M257 -171T250 -164T243 -141V247Q187 253 141 285T68 366T41 473Q41 539 71 591T154 671T268 700H471Q487 700 494 693T501 668V667Q501 652 494 645T471 638H445V-141Q445 -156 438 -163T415
-171H413Q397 -171 390 -164T383 -141V638H305V-141Q305 -156 298 -163T275 -171H273Q257 -171 250 -164Z" />
<glyph unicode="&#xb7;" glyph-name="middot" horiz-adv-x="267" d="M105 289T85 309T64 359Q64 388 84 408T134 429Q163 429 183 409T204 359Q204 330 184 310T134 289Q105 289 85 309Z" />
<glyph unicode="&#xb8;" glyph-name="cedilla" horiz-adv-x="250" d="M206 -52T228 -71T250 -120Q250 -165 220 -188T131 -212Q84 -212 42 -198T0 -162Q0 -144 10 -133T28 -122Q36 -122 57 -129Q100 -144 129 -144Q148 -144 156 -139T164 -121Q164 -109 153 -103T122
-91Q119 -90 111 -88T98 -82T94 -75Q94 -67 119 10H183L168 -47Q206 -52 228 -71Z" />
<glyph unicode="&#xb9;" glyph-name="uni00B9" horiz-adv-x="310" d="M123 349T123 368V682L44 669Q34 669 30 685T25 719Q25 733 40 736L186 762Q193 762 201 758T209 748V368Q209 349 174 349H158Q123 349 123 368Z" />
<glyph unicode="&#xba;" glyph-name="ordmasculine" horiz-adv-x="337" d="M110 441T79 475T48 575Q48 640 79 674T169 708Q228 708 258 674T289 575Q289 510 259 476T169 441Q110 441 79 475ZM190 504T199 521T209 575Q209 645 169 645Q148 645 138 628T128 575Q128
539 138 522T169 504Q190 504 199 521Z" />
<glyph unicode="&#xbb;" glyph-name="guillemotright" horiz-adv-x="470" d="M62 46T41 63T20 95Q20 106 29 118L139 258L29 398Q20 410 20 420Q20 436 41 452T79 469Q95 469 106 455L233 302Q242 292 245 282T249 258Q249 244 246 234T233 214L106 61Q94 46 79
46Q62 46 41 63ZM261 46T240 63T219 95Q219 106 228 118L338 258L228 398Q219 410 219 420Q219 436 240 452T278 469Q294 469 305 455L432 302Q441 292 444 282T448 258Q448 244 445 234T432 214L305 61Q293 46 278 46Q261 46 240 63Z" />
<glyph unicode="&#xbc;" glyph-name="onequarter" horiz-adv-x="750" d="M354 289T354 308V622L275 609Q265 609 261 625T256 659Q256 673 271 676L417 702Q424 702 432 698T440 688V308Q440 289 405 289H389Q354 289 354 308ZM600 -1T600 17V82H452Q443 82 435
101T427 133Q427 139 431 145L600 397Q605 404 613 406T635 408H651Q686 408 686 389V150H708Q725 150 725 121V111Q725 82 708 82H686V17Q686 -1 651 -1H635Q600 -1 600 17ZM601 150V234Q601 284 612 303L609 304L508 150H601ZM136 0T136 11Q136 14 142 26L504
679Q511 691 520 695T544 700H560Q571 700 577 697T584 689Q584 686 578 674L219 26Q211 12 202 6T178 0H157Q136 0 136 11Z" />
<glyph unicode="&#xbd;" glyph-name="onehalf" horiz-adv-x="750" d="M354 289T354 308V622L275 609Q265 609 261 625T256 659Q256 673 271 676L417 702Q424 702 432 698T440 688V308Q440 289 405 289H389Q354 289 354 308ZM452 0T447 18T441 51Q441 57 448 66L591
241Q613 268 613 297Q613 320 598 332T559 345Q543 345 531 340T506 327T490 319Q477 319 467 333T457 360Q457 384 492 398T573 413Q634 413 667 382T701 299Q701 249 665 204L555 68H690Q708 68 708 39V29Q708 0 690 0H460Q452 0 447 18ZM112 0T112 11Q112 14
118 26L480 679Q487 691 496 695T520 700H536Q547 700 553 697T560 689Q560 686 554 674L195 26Q187 12 178 6T154 0H133Q112 0 112 11Z" />
<glyph unicode="&#xbe;" glyph-name="threequarters" horiz-adv-x="750" d="M349 283T307 295T265 331Q265 342 274 359T294 376Q297 376 311 369T342 357T379 352Q406 352 421 367T437 409Q437 439 421 454T368 469H352Q334 469 334 498V509Q334 538 352 538H363Q391
538 407 551T424 587Q424 609 412 621T376 634Q345 634 328 625T307 616Q298 616 288 632T277 661Q277 682 310 693T391 704Q447 704 479 676T512 601Q512 571 498 549T457 515V513Q491 500 508 473T525 408Q525 350 489 317T393 283Q349 283 307 295ZM600 -1T600
17V82H452Q443 82 435 101T427 133Q427 139 431 145L600 397Q605 404 613 406T635 408H651Q686 408 686 389V150H708Q725 150 725 121V111Q725 82 708 82H686V17Q686 -1 651 -1H635Q600 -1 600 17ZM601 150V234Q601 284 612 303L609 304L508 150H601ZM166 0T166
11Q166 14 172 26L534 679Q541 691 550 695T574 700H590Q601 700 607 697T614 689Q614 686 608 674L249 26Q241 12 232 6T208 0H187Q166 0 166 11Z" />
<glyph unicode="&#xbf;" glyph-name="questiondown" horiz-adv-x="425" d="M353 525T353 493V401Q353 369 293 369H261Q201 369 201 401V493Q201 525 261 525H293Q353 525 353 493ZM314 301T325 295T337 272Q337 232 319 197T269 124Q254 106 239 91Q210 59 196
40T182 3Q182 -53 256 -53Q282 -53 302 -47T346 -30Q362 -22 368 -22Q381 -22 395 -37T420 -73T431 -104Q431 -144 372 -164T243 -185Q142 -185 84 -137T26 -7Q26 47 50 84T120 161L137 176Q172 207 189 227T212 274Q215 289 227 295T265 301H288Q314 301 325 295Z"
/>
<glyph unicode="&#xc0;" glyph-name="Agrave" horiz-adv-x="613" d="M0 -2T0 20Q0 24 4 38L224 681Q232 702 281 702H333Q383 702 390 681L610 38Q613 28 613 20Q613 -2 563 -2H519Q470 -2 463 19L423 141H187L147 19Q140 -2 101 -2H61Q0 -2 0 20ZM380 273L323
451Q316 471 308 515H304Q303 509 300 489T289 451L230 273H380ZM335 749T321 753T290 768L204 825Q174 844 174 857Q174 868 190 871T245 875Q279 875 297 869T331 845L385 785Q398 771 398 762Q398 749 360 749Q335 749 321 753Z" />
<glyph unicode="&#xc1;" glyph-name="Aacute" horiz-adv-x="613" d="M0 -2T0 20Q0 24 4 38L224 681Q232 702 281 702H333Q383 702 390 681L610 38Q613 28 613 20Q613 -2 563 -2H519Q470 -2 463 19L423 141H187L147 19Q140 -2 101 -2H61Q0 -2 0 20ZM380 273L323
451Q316 471 308 515H304Q303 509 300 489T289 451L230 273H380ZM215 749T215 762Q215 771 228 785L282 845Q298 862 316 868T368 875Q406 875 422 872T439 857Q439 844 409 824L323 768Q307 757 293 753T253 749Q215 749 215 762Z" />
<glyph unicode="&#xc2;" glyph-name="Acircumflex" horiz-adv-x="613" d="M0 -2T0 20Q0 24 4 38L224 681Q232 702 281 702H333Q383 702 390 681L610 38Q613 28 613 20Q613 -2 563 -2H519Q470 -2 463 19L423 141H187L147 19Q140 -2 101 -2H61Q0 -2 0 20ZM380 273L323
451Q316 471 308 515H304Q303 509 300 489T289 451L230 273H380ZM175 734T167 736T159 744Q159 751 180 774L236 837Q248 851 260 855T296 860H316Q339 860 351 855T377 836L432 774Q453 751 453 744Q453 738 445 736T413 734Q384 734 355 751L306 779L257 751Q226
734 199 734Q175 734 167 736Z" />
<glyph unicode="&#xc3;" glyph-name="Atilde" horiz-adv-x="613" d="M0 -2T0 20Q0 24 4 38L224 681Q232 702 281 702H333Q383 702 390 681L610 38Q613 28 613 20Q613 -2 563 -2H519Q470 -2 463 19L423 141H187L147 19Q140 -2 101 -2H61Q0 -2 0 20ZM380 273L323
451Q316 471 308 515H304Q303 509 300 489T289 451L230 273H380ZM159 750T143 759T127 778Q127 789 135 805Q148 833 173 852T238 871Q264 871 318 855Q363 842 379 842Q400 842 421 861Q422 862 429 867T444 873Q456 873 471 862T487 840Q487 831 479 817Q465
792 439 773T375 753Q349 753 295 769Q250 782 231 782Q218 782 209 777T190 762Q178 750 170 750Q159 750 143 759Z" />
<glyph unicode="&#xc4;" glyph-name="Adieresis" horiz-adv-x="613" d="M0 -2T0 20Q0 24 4 38L224 681Q232 702 281 702H333Q383 702 390 681L610 38Q613 28 613 20Q613 -2 563 -2H519Q470 -2 463 19L423 141H187L147 19Q140 -2 101 -2H61Q0 -2 0 20ZM380 273L323
451Q316 471 308 515H304Q303 509 300 489T289 451L230 273H380ZM180 746T165 753T150 778V846Q150 863 165 870T214 878Q248 878 263 871T278 846V778Q278 761 263 754T214 746Q180 746 165 753ZM366 746T351 753T336 778V846Q336 863 351 870T400 878Q434 878
449 871T464 846V778Q464 761 449 754T400 746Q366 746 351 753Z" />
<glyph unicode="&#xc5;" glyph-name="Aring" horiz-adv-x="613" d="M0 -2T0 20Q0 24 4 38L224 681Q232 702 281 702H333Q383 702 390 681L610 38Q613 28 613 20Q613 -2 563 -2H519Q470 -2 463 19L423 141H187L147 19Q140 -2 101 -2H61Q0 -2 0 20ZM380 273L323
451Q316 471 308 515H304Q303 509 300 489T289 451L230 273H380ZM264 718T236 746T207 817Q207 860 235 888T306 917Q349 917 377 889T406 817Q406 775 378 747T306 718Q264 718 236 746ZM321 782T331 792T341 816Q341 831 331 841T306 851Q292 851 282 841T272
816Q272 802 282 792T306 782Q321 782 331 792Z" />
<glyph unicode="&#xc6;" glyph-name="AE" horiz-adv-x="915" d="M1 -2T1 20Q1 30 5 38L326 673Q334 687 344 693T370 700H834Q850 700 857 688T864 650V619Q864 593 857 581T834 569H517L545 424H807Q823 424 830 412T837 374V343Q837 317 830 305T807 293H571L602
131H835Q851 131 858 119T865 81V50Q865 24 858 12T835 0H504Q488 0 480 7T469 30L448 141H205L145 19Q135 -2 99 -2H62Q1 -2 1 20ZM424 273L391 454V537H387L359 455L270 273H424Z" />
<glyph unicode="&#xc7;" glyph-name="Ccedilla" horiz-adv-x="619" d="M553 163T566 146T588 108T597 76Q597 50 562 30Q529 11 475 2T374 -8H373L363 -47Q401 -52 423 -71T445 -120Q445 -165 415 -188T326 -212Q279 -212 237 -198T195 -162Q195 -144 205 -133T223
-122Q231 -122 252 -129Q295 -144 324 -144Q343 -144 351 -139T359 -121Q359 -109 348 -103T317 -91Q314 -90 306 -88T293 -82T289 -75Q289 -68 309 -4Q175 11 110 98T45 352Q45 708 379 708Q429 708 481 698T562 670Q588 655 588 638Q588 624 577 602T551 562T523
544Q520 544 499 553T448 569T376 576Q288 576 246 520T203 351Q203 123 374 123Q419 123 452 132T516 155Q532 163 538 163Q553 163 566 146Z" />
<glyph unicode="&#xc8;" glyph-name="Egrave" horiz-adv-x="546" d="M96 0T87 9T77 40V660Q77 681 86 690T117 700H468Q484 700 491 688T498 650V619Q498 593 491 581T468 569H231V424H441Q457 424 464 412T471 374V343Q471 317 464 305T441 293H231V131H469Q485
131 492 119T499 81V50Q499 24 492 12T469 0H117Q96 0 87 9ZM314 749T300 753T269 768L183 825Q153 844 153 857Q153 868 169 871T224 875Q258 875 276 869T310 845L364 785Q377 771 377 762Q377 749 339 749Q314 749 300 753Z" />
<glyph unicode="&#xc9;" glyph-name="Eacute" horiz-adv-x="546" d="M96 0T87 9T77 40V660Q77 681 86 690T117 700H468Q484 700 491 688T498 650V619Q498 593 491 581T468 569H231V424H441Q457 424 464 412T471 374V343Q471 317 464 305T441 293H231V131H469Q485
131 492 119T499 81V50Q499 24 492 12T469 0H117Q96 0 87 9ZM194 749T194 762Q194 771 207 785L261 845Q277 862 295 868T347 875Q385 875 401 872T418 857Q418 844 388 824L302 768Q286 757 272 753T232 749Q194 749 194 762Z" />
<glyph unicode="&#xca;" glyph-name="Ecircumflex" horiz-adv-x="546" d="M96 0T87 9T77 40V660Q77 681 86 690T117 700H468Q484 700 491 688T498 650V619Q498 593 491 581T468 569H231V424H441Q457 424 464 412T471 374V343Q471 317 464 305T441 293H231V131H469Q485
131 492 119T499 81V50Q499 24 492 12T469 0H117Q96 0 87 9ZM154 734T146 736T138 744Q138 751 159 774L215 837Q227 851 239 855T275 860H295Q318 860 330 855T356 836L411 774Q432 751 432 744Q432 738 424 736T392 734Q363 734 334 751L285 779L236 751Q205
734 178 734Q154 734 146 736Z" />
<glyph unicode="&#xcb;" glyph-name="Edieresis" horiz-adv-x="546" d="M96 0T87 9T77 40V660Q77 681 86 690T117 700H468Q484 700 491 688T498 650V619Q498 593 491 581T468 569H231V424H441Q457 424 464 412T471 374V343Q471 317 464 305T441 293H231V131H469Q485
131 492 119T499 81V50Q499 24 492 12T469 0H117Q96 0 87 9ZM159 746T144 753T129 778V846Q129 863 144 870T193 878Q227 878 242 871T257 846V778Q257 761 242 754T193 746Q159 746 144 753ZM345 746T330 753T315 778V846Q315 863 330 870T379 878Q413 878 428
871T443 846V778Q443 761 428 754T379 746Q345 746 330 753Z" />
<glyph unicode="&#xcc;" glyph-name="Igrave" horiz-adv-x="283" d="M64 -3T64 30V670Q64 703 124 703H159Q219 703 219 670V30Q219 -3 159 -3H124Q64 -3 64 30ZM170 749T156 753T125 768L39 825Q9 844 9 857Q9 868 25 871T80 875Q114 875 132 869T166 845L220
785Q233 771 233 762Q233 749 195 749Q170 749 156 753Z" />
<glyph unicode="&#xcd;" glyph-name="Iacute" horiz-adv-x="283" d="M64 -3T64 30V670Q64 703 124 703H159Q219 703 219 670V30Q219 -3 159 -3H124Q64 -3 64 30ZM50 749T50 762Q50 771 63 785L117 845Q133 862 151 868T203 875Q241 875 257 872T274 857Q274 844
244 824L158 768Q142 757 128 753T88 749Q50 749 50 762Z" />
<glyph unicode="&#xce;" glyph-name="Icircumflex" horiz-adv-x="283" d="M64 -3T64 30V670Q64 703 124 703H159Q219 703 219 670V30Q219 -3 159 -3H124Q64 -3 64 30ZM10 734T2 736T-6 744Q-6 751 15 774L71 837Q83 851 95 855T131 860H151Q174 860 186 855T212
836L267 774Q288 751 288 744Q288 738 280 736T248 734Q219 734 190 751L141 779L92 751Q61 734 34 734Q10 734 2 736Z" />
<glyph unicode="&#xcf;" glyph-name="Idieresis" horiz-adv-x="283" d="M64 -3T64 30V670Q64 703 124 703H159Q219 703 219 670V30Q219 -3 159 -3H124Q64 -3 64 30ZM15 746T0 753T-15 778V846Q-15 863 0 870T49 878Q83 878 98 871T113 846V778Q113 761 98 754T49
746Q15 746 0 753ZM201 746T186 753T171 778V846Q171 863 186 870T235 878Q269 878 284 871T299 846V778Q299 761 284 754T235 746Q201 746 186 753Z" />
<glyph unicode="&#xd0;" glyph-name="Eth" horiz-adv-x="696" d="M485 700T567 610T650 350Q650 181 568 91T330 0H116Q95 0 86 9T76 40V291H42Q26 291 19 303T12 341V371Q12 397 19 409T42 421H76V660Q76 681 85 690T116 700H330Q485 700 567 610ZM410 131T451
187T492 350Q492 457 451 513T330 569H231V421H325Q341 421 348 409T355 371V341Q355 315 348 303T325 291H231V131H330Q410 131 451 187Z" />
<glyph unicode="&#xd1;" glyph-name="Ntilde" horiz-adv-x="719" d="M69 -2T69 30V670Q69 702 129 702H172Q196 702 212 697T238 675L463 328Q483 299 499 269L503 270Q501 293 501 338V670Q501 702 561 702H590Q650 702 650 670V30Q650 -2 590 -2H552Q528 -2
512 3T486 25L256 377Q236 406 220 436L216 435Q218 412 218 367V30Q218 -2 158 -2H129Q69 -2 69 30ZM212 750T196 759T180 778Q180 789 188 805Q201 833 226 852T291 871Q317 871 371 855Q416 842 432 842Q453 842 474 861Q475 862 482 867T497 873Q509 873 524
862T540 840Q540 831 532 817Q518 792 492 773T428 753Q402 753 348 769Q303 782 284 782Q271 782 262 777T243 762Q231 750 223 750Q212 750 196 759Z" />
<glyph unicode="&#xd2;" glyph-name="Ograve" horiz-adv-x="731" d="M211 -8T128 84T45 350Q45 523 128 615T366 708Q521 708 603 616T686 350Q686 177 604 85T366 -8Q211 -8 128 84ZM446 123T487 181T528 350Q528 461 487 518T366 576Q286 576 245 519T203 350Q203
239 244 181T366 123Q446 123 487 181ZM394 749T380 753T349 768L263 825Q233 844 233 857Q233 868 249 871T304 875Q338 875 356 869T390 845L444 785Q457 771 457 762Q457 749 419 749Q394 749 380 753Z" />
<glyph unicode="&#xd3;" glyph-name="Oacute" horiz-adv-x="731" d="M211 -8T128 84T45 350Q45 523 128 615T366 708Q521 708 603 616T686 350Q686 177 604 85T366 -8Q211 -8 128 84ZM446 123T487 181T528 350Q528 461 487 518T366 576Q286 576 245 519T203 350Q203
239 244 181T366 123Q446 123 487 181ZM274 749T274 762Q274 771 287 785L341 845Q357 862 375 868T427 875Q465 875 481 872T498 857Q498 844 468 824L382 768Q366 757 352 753T312 749Q274 749 274 762Z" />
<glyph unicode="&#xd4;" glyph-name="Ocircumflex" horiz-adv-x="731" d="M211 -8T128 84T45 350Q45 523 128 615T366 708Q521 708 603 616T686 350Q686 177 604 85T366 -8Q211 -8 128 84ZM446 123T487 181T528 350Q528 461 487 518T366 576Q286 576 245 519T203
350Q203 239 244 181T366 123Q446 123 487 181ZM234 734T226 736T218 744Q218 751 239 774L295 837Q307 851 319 855T355 860H375Q398 860 410 855T436 836L491 774Q512 751 512 744Q512 738 504 736T472 734Q443 734 414 751L365 779L316 751Q285 734 258 734Q234
734 226 736Z" />
<glyph unicode="&#xd5;" glyph-name="Otilde" horiz-adv-x="731" d="M211 -8T128 84T45 350Q45 523 128 615T366 708Q521 708 603 616T686 350Q686 177 604 85T366 -8Q211 -8 128 84ZM446 123T487 181T528 350Q528 461 487 518T366 576Q286 576 245 519T203 350Q203
239 244 181T366 123Q446 123 487 181ZM218 750T202 759T186 778Q186 789 194 805Q207 833 232 852T297 871Q323 871 377 855Q422 842 438 842Q459 842 480 861Q481 862 488 867T503 873Q515 873 530 862T546 840Q546 831 538 817Q524 792 498 773T434 753Q408
753 354 769Q309 782 290 782Q277 782 268 777T249 762Q237 750 229 750Q218 750 202 759Z" />
<glyph unicode="&#xd6;" glyph-name="Odieresis" horiz-adv-x="731" d="M211 -8T128 84T45 350Q45 523 128 615T366 708Q521 708 603 616T686 350Q686 177 604 85T366 -8Q211 -8 128 84ZM446 123T487 181T528 350Q528 461 487 518T366 576Q286 576 245 519T203
350Q203 239 244 181T366 123Q446 123 487 181ZM239 746T224 753T209 778V846Q209 863 224 870T273 878Q307 878 322 871T337 846V778Q337 761 322 754T273 746Q239 746 224 753ZM425 746T410 753T395 778V846Q395 863 410 870T459 878Q493 878 508 871T523 846V778Q523
761 508 754T459 746Q425 746 410 753Z" />
<glyph unicode="&#xd7;" glyph-name="multiply" horiz-adv-x="560" d="M105 11T89 23T61 51T49 77Q49 86 58 95L205 242L58 390Q49 399 49 408Q49 418 61 434T89 462T115 474Q124 474 133 465L280 318L428 465Q437 474 446 474Q455 474 471 462T499 434T512 408Q512
399 503 390L356 242L503 95Q512 86 512 77Q512 66 500 50T471 23T446 11Q437 11 428 20L280 167L133 20Q124 11 115 11Q105 11 89 23Z" />
<glyph unicode="&#xd8;" glyph-name="Oslash" horiz-adv-x="731" d="M686 508T686 350Q686 177 604 85T366 -8Q229 -8 147 66L89 0Q79 -12 67 -12Q54 -12 37 4T19 34Q19 42 29 54L96 129Q45 215 45 350Q45 523 128 615T366 708Q485 708 560 654L612 712Q623 724
634 724Q647 724 664 708T682 678Q682 669 672 658L618 597Q686 508 686 350ZM203 301T212 260L463 544Q425 576 366 576Q286 576 245 519T203 350Q203 301 212 260ZM446 123T487 181T528 350Q528 424 510 475L247 178Q288 123 366 123Q446 123 487 181Z" />
<glyph unicode="&#xd9;" glyph-name="Ugrave" horiz-adv-x="712" d="M218 -8T142 55T66 234V670Q66 702 126 702H160Q220 702 220 670V244Q220 191 258 157T356 123Q416 123 454 157T493 244V670Q493 702 553 702H586Q646 702 646 670V234Q646 119 570 56T356
-8Q218 -8 142 55ZM384 749T370 753T339 768L253 825Q223 844 223 857Q223 868 239 871T294 875Q328 875 346 869T380 845L434 785Q447 771 447 762Q447 749 409 749Q384 749 370 753Z" />
<glyph unicode="&#xda;" glyph-name="Uacute" horiz-adv-x="712" d="M218 -8T142 55T66 234V670Q66 702 126 702H160Q220 702 220 670V244Q220 191 258 157T356 123Q416 123 454 157T493 244V670Q493 702 553 702H586Q646 702 646 670V234Q646 119 570 56T356
-8Q218 -8 142 55ZM264 749T264 762Q264 771 277 785L331 845Q347 862 365 868T417 875Q455 875 471 872T488 857Q488 844 458 824L372 768Q356 757 342 753T302 749Q264 749 264 762Z" />
<glyph unicode="&#xdb;" glyph-name="Ucircumflex" horiz-adv-x="712" d="M218 -8T142 55T66 234V670Q66 702 126 702H160Q220 702 220 670V244Q220 191 258 157T356 123Q416 123 454 157T493 244V670Q493 702 553 702H586Q646 702 646 670V234Q646 119 570 56T356
-8Q218 -8 142 55ZM224 734T216 736T208 744Q208 751 229 774L285 837Q297 851 309 855T345 860H365Q388 860 400 855T426 836L481 774Q502 751 502 744Q502 738 494 736T462 734Q433 734 404 751L355 779L306 751Q275 734 248 734Q224 734 216 736Z" />
<glyph unicode="&#xdc;" glyph-name="Udieresis" horiz-adv-x="712" d="M218 -8T142 55T66 234V670Q66 702 126 702H160Q220 702 220 670V244Q220 191 258 157T356 123Q416 123 454 157T493 244V670Q493 702 553 702H586Q646 702 646 670V234Q646 119 570 56T356
-8Q218 -8 142 55ZM229 746T214 753T199 778V846Q199 863 214 870T263 878Q297 878 312 871T327 846V778Q327 761 312 754T263 746Q229 746 214 753ZM415 746T400 753T385 778V846Q385 863 400 870T449 878Q483 878 498 871T513 846V778Q513 761 498 754T449 746Q415
746 400 753Z" />
<glyph unicode="&#xdd;" glyph-name="Yacute" horiz-adv-x="559" d="M203 -2T203 30V336L4 657Q-6 674 -6 682Q-6 702 58 702H101Q150 702 161 683L283 469L406 683Q417 702 466 702H502Q565 702 565 682Q565 672 556 657L357 333V30Q357 -2 297 -2H263Q203 -2
203 30ZM188 749T188 762Q188 771 201 785L255 845Q271 862 289 868T341 875Q379 875 395 872T412 857Q412 844 382 824L296 768Q280 757 266 753T226 749Q188 749 188 762Z" />
<glyph unicode="&#xde;" glyph-name="Thorn" horiz-adv-x="570" d="M69 -2T69 30V670Q69 702 129 702H163Q223 702 223 670V593H319Q413 593 485 548T557 374Q557 286 515 238T421 172T329 155H223V30Q223 -2 163 -2H129Q69 -2 69 30ZM312 287Q348 287 373 306T399
374Q399 423 374 442T312 462H223V287H312Z" />
<glyph unicode="&#xdf;" glyph-name="germandbls" horiz-adv-x="554" d="M58 -2T58 30V490Q58 555 87 604T169 681T287 708Q350 708 400 687T479 625T508 530Q508 480 484 443T415 387V383Q477 359 505 317T533 210Q533 150 505 102T423 27T299 0H276Q260 0 253
12T246 50V67Q246 93 253 105T276 117H290Q332 117 357 142T383 210Q383 256 355 283T278 311H276Q260 311 253 323T246 361V378Q246 428 273 428H276Q313 428 335 452T358 511Q358 538 340 560T285 583Q249 583 228 561T206 502V30Q206 -2 146 -2H118Q58 -2 58
30Z" />
<glyph unicode="&#xe0;" glyph-name="agrave" horiz-adv-x="545" d="M113 -8T78 32T42 138Q42 218 100 271T329 324V357Q329 386 311 400T251 414Q217 414 192 407T146 391T123 382Q113 382 101 397T80 431T71 462Q71 479 96 495T165 521T262 531Q375 531 426
487T477 364V176Q477 130 479 106T486 53Q489 40 489 31Q489 15 449 7T377 -1Q359 -1 352 13T342 45T337 68Q331 57 313 40T263 7T190 -8Q113 -8 78 32ZM267 109T292 127T329 172V227Q189 227 189 153Q189 133 202 121T239 109Q267 109 292 127ZM265 572T247 579T214
602L157 665Q138 686 138 701Q138 711 149 714T191 718Q236 718 251 712T276 687L316 615Q319 609 324 601T329 587Q329 580 321 576T288 572Q265 572 247 579Z" />
<glyph unicode="&#xe1;" glyph-name="aacute" horiz-adv-x="545" d="M113 -8T78 32T42 138Q42 218 100 271T329 324V357Q329 386 311 400T251 414Q217 414 192 407T146 391T123 382Q113 382 101 397T80 431T71 462Q71 479 96 495T165 521T262 531Q375 531 426
487T477 364V176Q477 130 479 106T486 53Q489 40 489 31Q489 15 449 7T377 -1Q359 -1 352 13T342 45T337 68Q331 57 313 40T263 7T190 -8Q113 -8 78 32ZM267 109T292 127T329 172V227Q189 227 189 153Q189 133 202 121T239 109Q267 109 292 127ZM212 572T204 576T195
587Q195 592 200 600T208 615L248 687Q258 706 273 712T333 718Q363 718 374 715T386 701Q386 687 367 665L310 602Q295 586 277 579T236 572Q212 572 204 576Z" />
<glyph unicode="&#xe2;" glyph-name="acircumflex" horiz-adv-x="545" d="M113 -8T78 32T42 138Q42 218 100 271T329 324V357Q329 386 311 400T251 414Q217 414 192 407T146 391T123 382Q113 382 101 397T80 431T71 462Q71 479 96 495T165 521T262 531Q375 531
426 487T477 364V176Q477 130 479 106T486 53Q489 40 489 31Q489 15 449 7T377 -1Q359 -1 352 13T342 45T337 68Q331 57 313 40T263 7T190 -8Q113 -8 78 32ZM267 109T292 127T329 172V227Q189 227 189 153Q189 133 202 121T239 109Q267 109 292 127ZM154 572T145
575T135 587Q135 592 141 602T148 615L192 692Q200 707 214 712T258 718H286Q316 718 330 713T352 692L396 615Q397 613 403 603T409 587Q409 579 400 576T368 572Q344 572 332 578T308 597L272 636L236 597Q225 584 213 578T176 572Q154 572 145 575Z" />
<glyph unicode="&#xe3;" glyph-name="atilde" horiz-adv-x="545" d="M113 -8T78 32T42 138Q42 218 100 271T329 324V357Q329 386 311 400T251 414Q217 414 192 407T146 391T123 382Q113 382 101 397T80 431T71 462Q71 479 96 495T165 521T262 531Q375 531 426
487T477 364V176Q477 130 479 106T486 53Q489 40 489 31Q489 15 449 7T377 -1Q359 -1 352 13T342 45T337 68Q331 57 313 40T263 7T190 -8Q113 -8 78 32ZM267 109T292 127T329 172V227Q189 227 189 153Q189 133 202 121T239 109Q267 109 292 127ZM128 582T111 591T93
612Q93 623 98 635Q111 665 137 684T199 704Q226 704 280 689Q315 678 331 678Q347 678 357 683T376 696Q377 697 383 701T397 706Q406 706 424 694T443 671Q443 663 435 646Q424 622 399 604T331 586Q316 586 297 590T259 601Q222 612 207 612Q192 612 181 607T159
592Q158 591 152 587T139 582Q128 582 111 591Z" />
<glyph unicode="&#xe4;" glyph-name="adieresis" horiz-adv-x="545" d="M113 -8T78 32T42 138Q42 218 100 271T329 324V357Q329 386 311 400T251 414Q217 414 192 407T146 391T123 382Q113 382 101 397T80 431T71 462Q71 479 96 495T165 521T262 531Q375 531 426
487T477 364V176Q477 130 479 106T486 53Q489 40 489 31Q489 15 449 7T377 -1Q359 -1 352 13T342 45T337 68Q331 57 313 40T263 7T190 -8Q113 -8 78 32ZM267 109T292 127T329 172V227Q189 227 189 153Q189 133 202 121T239 109Q267 109 292 127ZM149 581T135 588T120
613V677Q120 694 134 701T182 709Q215 709 229 702T244 677V613Q244 596 230 589T182 581Q149 581 135 588ZM331 581T317 588T302 613V677Q302 694 316 701T364 709Q397 709 411 702T426 677V613Q426 596 412 589T364 581Q331 581 317 588Z" />
<glyph unicode="&#xe5;" glyph-name="aring" horiz-adv-x="545" d="M113 -8T78 32T42 138Q42 218 100 271T329 324V357Q329 386 311 400T251 414Q217 414 192 407T146 391T123 382Q113 382 101 397T80 431T71 462Q71 479 96 495T165 521T262 531Q375 531 426 487T477
364V176Q477 130 479 106T486 53Q489 40 489 31Q489 15 449 7T377 -1Q359 -1 352 13T342 45T337 68Q331 57 313 40T263 7T190 -8Q113 -8 78 32ZM267 109T292 127T329 172V227Q189 227 189 153Q189 133 202 121T239 109Q267 109 292 127ZM229 541T200 569T170 640Q170
683 199 711T272 740Q316 740 345 712T375 640Q375 598 346 570T272 541Q229 541 200 569ZM287 605T297 615T307 639Q307 654 297 664T272 674Q258 674 248 664T238 639Q238 625 248 615T272 605Q287 605 297 615Z" />
<glyph unicode="&#xe6;" glyph-name="ae" horiz-adv-x="819" d="M130 -8T86 33T42 138Q42 217 100 269T326 323Q330 358 341 387Q320 414 251 414Q208 414 150 390Q126 382 123 382Q113 382 101 397T80 431T71 462Q71 479 96 495T165 521T262 531Q370 531 423
495Q482 531 565 531Q677 531 729 463T781 283Q781 270 762 247T732 224H477Q477 163 509 136T590 109Q618 109 641 115T689 132Q705 140 711 140Q721 140 733 126T754 93T763 64Q763 41 732 25T658 0T583 -8Q456 -8 388 60Q364 36 317 14T208 -8Q130 -8 86 33ZM637
323Q637 366 618 390T565 414Q489 414 475 323H637ZM267 109T294 121T335 156Q326 188 323 225Q189 224 189 153Q189 133 202 121T239 109Q267 109 294 121Z" />
<glyph unicode="&#xe7;" glyph-name="ccedilla" horiz-adv-x="485" d="M469 32T424 16T324 -6L313 -47Q351 -52 373 -71T395 -120Q395 -165 365 -188T276 -212Q229 -212 187 -198T145 -162Q145 -144 155 -133T173 -122Q181 -122 202 -129Q245 -144 274 -144Q293
-144 301 -139T309 -121Q309 -109 298 -103T267 -91Q264 -90 256 -88T243 -82T239 -75Q239 -68 259 -7Q149 2 96 67T42 258Q42 394 104 462T299 531Q360 531 412 513T465 462Q465 447 445 416T412 385Q408 385 394 392Q374 402 355 408T307 414Q248 414 221 377T194
262Q194 184 219 147T301 109Q327 109 347 114T381 125T399 132Q415 138 417 138Q427 138 439 124T460 91T469 62Q469 32 424 16Z" />
<glyph unicode="&#xe8;" glyph-name="egrave" horiz-adv-x="539" d="M171 -8T107 62T42 258Q42 399 106 465T285 531Q396 531 448 459T501 273Q501 261 481 238T450 214H195Q200 157 229 133T310 109Q338 109 361 115T409 132Q425 140 431 140Q441 140 453 126T474
93T483 64Q483 41 452 25T378 0T303 -8Q171 -8 107 62ZM357 313Q357 359 339 386T285 414Q211 414 195 313H357ZM272 572T254 579T221 602L164 665Q145 686 145 701Q145 711 156 714T198 718Q243 718 258 712T283 687L323 615Q326 609 331 601T336 587Q336 580
328 576T295 572Q272 572 254 579Z" />
<glyph unicode="&#xe9;" glyph-name="eacute" horiz-adv-x="539" d="M171 -8T107 62T42 258Q42 399 106 465T285 531Q396 531 448 459T501 273Q501 261 481 238T450 214H195Q200 157 229 133T310 109Q338 109 361 115T409 132Q425 140 431 140Q441 140 453 126T474
93T483 64Q483 41 452 25T378 0T303 -8Q171 -8 107 62ZM357 313Q357 359 339 386T285 414Q211 414 195 313H357ZM219 572T211 576T202 587Q202 592 207 600T215 615L255 687Q265 706 280 712T340 718Q370 718 381 715T393 701Q393 687 374 665L317 602Q302 586
284 579T243 572Q219 572 211 576Z" />
<glyph unicode="&#xea;" glyph-name="ecircumflex" horiz-adv-x="539" d="M171 -8T107 62T42 258Q42 399 106 465T285 531Q396 531 448 459T501 273Q501 261 481 238T450 214H195Q200 157 229 133T310 109Q338 109 361 115T409 132Q425 140 431 140Q441 140 453
126T474 93T483 64Q483 41 452 25T378 0T303 -8Q171 -8 107 62ZM357 313Q357 359 339 386T285 414Q211 414 195 313H357ZM161 572T152 575T142 587Q142 592 148 602T155 615L199 692Q207 707 221 712T265 718H293Q323 718 337 713T359 692L403 615Q404 613 410
603T416 587Q416 579 407 576T375 572Q351 572 339 578T315 597L279 636L243 597Q232 584 220 578T183 572Q161 572 152 575Z" />
<glyph unicode="&#xeb;" glyph-name="edieresis" horiz-adv-x="539" d="M171 -8T107 62T42 258Q42 399 106 465T285 531Q396 531 448 459T501 273Q501 261 481 238T450 214H195Q200 157 229 133T310 109Q338 109 361 115T409 132Q425 140 431 140Q441 140 453
126T474 93T483 64Q483 41 452 25T378 0T303 -8Q171 -8 107 62ZM357 313Q357 359 339 386T285 414Q211 414 195 313H357ZM156 581T142 588T127 613V677Q127 694 141 701T189 709Q222 709 236 702T251 677V613Q251 596 237 589T189 581Q156 581 142 588ZM338 581T324
588T309 613V677Q309 694 323 701T371 709Q404 709 418 702T433 677V613Q433 596 419 589T371 581Q338 581 324 588Z" />
<glyph unicode="&#xec;" glyph-name="igrave" horiz-adv-x="265" d="M59 -2T59 30V493Q59 525 119 525H147Q207 525 207 493V30Q207 -2 147 -2H119Q59 -2 59 30ZM125 572T107 579T74 602L17 665Q-2 686 -2 701Q-2 711 9 714T51 718Q96 718 111 712T136 687L176
615Q179 609 184 601T189 587Q189 580 181 576T148 572Q125 572 107 579Z" />
<glyph unicode="&#xed;" glyph-name="iacute" horiz-adv-x="265" d="M59 -2T59 30V493Q59 525 119 525H147Q207 525 207 493V30Q207 -2 147 -2H119Q59 -2 59 30ZM72 572T64 576T55 587Q55 592 60 600T68 615L108 687Q118 706 133 712T193 718Q223 718 234 715T246
701Q246 687 227 665L170 602Q155 586 137 579T96 572Q72 572 64 576Z" />
<glyph unicode="&#xee;" glyph-name="icircumflex" horiz-adv-x="265" d="M59 -2T59 30V493Q59 525 119 525H147Q207 525 207 493V30Q207 -2 147 -2H119Q59 -2 59 30ZM14 572T5 575T-5 587Q-5 592 1 602T8 615L52 692Q60 707 74 712T118 718H146Q176 718 190 713T212
692L256 615Q257 613 263 603T269 587Q269 579 260 576T228 572Q204 572 192 578T168 597L132 636L96 597Q85 584 73 578T36 572Q14 572 5 575Z" />
<glyph unicode="&#xef;" glyph-name="idieresis" horiz-adv-x="265" d="M59 -2T59 30V493Q59 525 119 525H147Q207 525 207 493V30Q207 -2 147 -2H119Q59 -2 59 30ZM9 581T-5 588T-20 613V677Q-20 694 -6 701T42 709Q75 709 89 702T104 677V613Q104 596 90 589T42
581Q9 581 -5 588ZM191 581T177 588T162 613V677Q162 694 176 701T224 709Q257 709 271 702T286 677V613Q286 596 272 589T224 581Q191 581 177 588Z" />
<glyph unicode="&#xf0;" glyph-name="eth" horiz-adv-x="569" d="M469 542T498 450T527 262Q527 131 466 62T285 -8Q166 -8 104 61T42 262Q42 393 104 462T285 531Q304 531 336 527Q324 554 304 589Q249 581 243 581Q228 581 216 594T204 623Q204 636 225 639L268
645L254 663Q230 689 230 696Q230 707 249 708L311 715Q335 715 349 704Q364 693 389 661L457 670Q470 670 482 657T494 628Q494 615 473 612L427 606Q469 542 498 450ZM332 109T354 147T377 262Q377 338 355 376T285 414Q238 414 215 376T192 262Q192 109 285
109Q332 109 354 147Z" />
<glyph unicode="&#xf1;" glyph-name="ntilde" horiz-adv-x="557" d="M62 -2T62 30V347Q62 391 60 414T53 467Q50 481 50 488Q50 504 90 512T162 520Q180 520 187 507T197 477T202 455Q226 487 266 509T351 531Q426 531 462 492T498 369V30Q498 -2 438 -2H410Q350
-2 350 30V347Q350 378 336 393T290 409Q263 409 243 392T210 351V30Q210 -2 150 -2H122Q62 -2 62 30ZM134 582T117 591T99 612Q99 623 104 635Q117 665 143 684T205 704Q232 704 286 689Q321 678 337 678Q353 678 363 683T382 696Q383 697 389 701T403 706Q412
706 430 694T449 671Q449 663 441 646Q430 622 405 604T337 586Q322 586 303 590T265 601Q228 612 213 612Q198 612 187 607T165 592Q164 591 158 587T145 582Q134 582 117 591Z" />
<glyph unicode="&#xf2;" glyph-name="ograve" horiz-adv-x="569" d="M166 -8T104 61T42 262Q42 393 104 462T285 531Q404 531 465 462T527 262Q527 131 466 62T285 -8Q166 -8 104 61ZM332 109T354 147T377 262Q377 338 355 376T285 414Q238 414 215 376T192 262Q192
109 285 109Q332 109 354 147ZM277 572T259 579T226 602L169 665Q150 686 150 701Q150 711 161 714T203 718Q248 718 263 712T288 687L328 615Q331 609 336 601T341 587Q341 580 333 576T300 572Q277 572 259 579Z" />
<glyph unicode="&#xf3;" glyph-name="oacute" horiz-adv-x="569" d="M166 -8T104 61T42 262Q42 393 104 462T285 531Q404 531 465 462T527 262Q527 131 466 62T285 -8Q166 -8 104 61ZM332 109T354 147T377 262Q377 338 355 376T285 414Q238 414 215 376T192 262Q192
109 285 109Q332 109 354 147ZM224 572T216 576T207 587Q207 592 212 600T220 615L260 687Q270 706 285 712T345 718Q375 718 386 715T398 701Q398 687 379 665L322 602Q307 586 289 579T248 572Q224 572 216 576Z" />
<glyph unicode="&#xf4;" glyph-name="ocircumflex" horiz-adv-x="569" d="M166 -8T104 61T42 262Q42 393 104 462T285 531Q404 531 465 462T527 262Q527 131 466 62T285 -8Q166 -8 104 61ZM332 109T354 147T377 262Q377 338 355 376T285 414Q238 414 215 376T192
262Q192 109 285 109Q332 109 354 147ZM166 572T157 575T147 587Q147 592 153 602T160 615L204 692Q212 707 226 712T270 718H298Q328 718 342 713T364 692L408 615Q409 613 415 603T421 587Q421 579 412 576T380 572Q356 572 344 578T320 597L284 636L248 597Q237
584 225 578T188 572Q166 572 157 575Z" />
<glyph unicode="&#xf5;" glyph-name="otilde" horiz-adv-x="569" d="M166 -8T104 61T42 262Q42 393 104 462T285 531Q404 531 465 462T527 262Q527 131 466 62T285 -8Q166 -8 104 61ZM332 109T354 147T377 262Q377 338 355 376T285 414Q238 414 215 376T192 262Q192
109 285 109Q332 109 354 147ZM140 582T123 591T105 612Q105 623 110 635Q123 665 149 684T211 704Q238 704 292 689Q327 678 343 678Q359 678 369 683T388 696Q389 697 395 701T409 706Q418 706 436 694T455 671Q455 663 447 646Q436 622 411 604T343 586Q328
586 309 590T271 601Q234 612 219 612Q204 612 193 607T171 592Q170 591 164 587T151 582Q140 582 123 591Z" />
<glyph unicode="&#xf6;" glyph-name="odieresis" horiz-adv-x="569" d="M166 -8T104 61T42 262Q42 393 104 462T285 531Q404 531 465 462T527 262Q527 131 466 62T285 -8Q166 -8 104 61ZM332 109T354 147T377 262Q377 338 355 376T285 414Q238 414 215 376T192
262Q192 109 285 109Q332 109 354 147ZM161 581T147 588T132 613V677Q132 694 146 701T194 709Q227 709 241 702T256 677V613Q256 596 242 589T194 581Q161 581 147 588ZM343 581T329 588T314 613V677Q314 694 328 701T376 709Q409 709 423 702T438 677V613Q438
596 424 589T376 581Q343 581 329 588Z" />
<glyph unicode="&#xf7;" glyph-name="divide" horiz-adv-x="560" d="M214 318T214 350V421Q214 453 274 453H285Q345 453 345 421V350Q345 318 285 318H274Q214 318 214 350ZM44 172T37 184T30 222V229Q30 255 37 267T60 279H500Q516 279 523 267T530 229V222Q530
196 523 184T500 172H60Q44 172 37 184ZM214 -2T214 30V101Q214 133 274 133H285Q345 133 345 101V30Q345 -2 285 -2H274Q214 -2 214 30Z" />
<glyph unicode="&#xf8;" glyph-name="oslash" horiz-adv-x="569" d="M484 437Q527 372 527 262Q527 131 466 62T285 -8Q194 -8 136 33L108 1Q98 -12 87 -12Q74 -12 57 3T39 32Q39 42 49 53L82 91Q42 159 42 262Q42 393 104 462T285 531Q371 531 428 494L460 531Q471
544 482 544Q494 544 512 528T530 500Q530 491 520 479L484 437ZM192 247T194 221L341 393Q320 414 285 414Q238 414 215 376T192 262Q192 247 194 221ZM377 289T374 310L224 135Q247 109 285 109Q332 109 354 147T377 262Q377 289 374 310Z" />
<glyph unicode="&#xf9;" glyph-name="ugrave" horiz-adv-x="557" d="M131 -8T95 31T59 154V493Q59 525 119 525H147Q207 525 207 493V176Q207 145 221 130T267 114Q294 114 314 131T347 172V493Q347 525 407 525H435Q495 525 495 493V176Q495 130 497 106T504
53Q507 40 507 31Q507 15 467 7T395 -1Q377 -1 370 13T360 45T355 68Q331 36 292 14T206 -8Q131 -8 95 31ZM271 572T253 579T220 602L163 665Q144 686 144 701Q144 711 155 714T197 718Q242 718 257 712T282 687L322 615Q325 609 330 601T335 587Q335 580 327 576T294
572Q271 572 253 579Z" />
<glyph unicode="&#xfa;" glyph-name="uacute" horiz-adv-x="557" d="M131 -8T95 31T59 154V493Q59 525 119 525H147Q207 525 207 493V176Q207 145 221 130T267 114Q294 114 314 131T347 172V493Q347 525 407 525H435Q495 525 495 493V176Q495 130 497 106T504
53Q507 40 507 31Q507 15 467 7T395 -1Q377 -1 370 13T360 45T355 68Q331 36 292 14T206 -8Q131 -8 95 31ZM218 572T210 576T201 587Q201 592 206 600T214 615L254 687Q264 706 279 712T339 718Q369 718 380 715T392 701Q392 687 373 665L316 602Q301 586 283 579T242
572Q218 572 210 576Z" />
<glyph unicode="&#xfb;" glyph-name="ucircumflex" horiz-adv-x="557" d="M131 -8T95 31T59 154V493Q59 525 119 525H147Q207 525 207 493V176Q207 145 221 130T267 114Q294 114 314 131T347 172V493Q347 525 407 525H435Q495 525 495 493V176Q495 130 497 106T504
53Q507 40 507 31Q507 15 467 7T395 -1Q377 -1 370 13T360 45T355 68Q331 36 292 14T206 -8Q131 -8 95 31ZM160 572T151 575T141 587Q141 592 147 602T154 615L198 692Q206 707 220 712T264 718H292Q322 718 336 713T358 692L402 615Q403 613 409 603T415 587Q415
579 406 576T374 572Q350 572 338 578T314 597L278 636L242 597Q231 584 219 578T182 572Q160 572 151 575Z" />
<glyph unicode="&#xfc;" glyph-name="udieresis" horiz-adv-x="557" d="M131 -8T95 31T59 154V493Q59 525 119 525H147Q207 525 207 493V176Q207 145 221 130T267 114Q294 114 314 131T347 172V493Q347 525 407 525H435Q495 525 495 493V176Q495 130 497 106T504
53Q507 40 507 31Q507 15 467 7T395 -1Q377 -1 370 13T360 45T355 68Q331 36 292 14T206 -8Q131 -8 95 31ZM155 581T141 588T126 613V677Q126 694 140 701T188 709Q221 709 235 702T250 677V613Q250 596 236 589T188 581Q155 581 141 588ZM337 581T323 588T308
613V677Q308 694 322 701T370 709Q403 709 417 702T432 677V613Q432 596 418 589T370 581Q337 581 323 588Z" />
<glyph unicode="&#xfd;" glyph-name="yacute" horiz-adv-x="481" d="M477 525T477 503Q477 496 474 485L245 -185Q238 -206 189 -206H172Q112 -206 112 -185Q112 -176 116 -167L179 2L14 485Q10 499 10 503Q10 525 71 525H103Q152 525 159 504L218 319Q227 291
246 198H250Q270 294 278 319L337 504Q344 525 393 525H417Q477 525 477 503ZM180 572T172 576T163 587Q163 592 168 600T176 615L216 687Q226 706 241 712T301 718Q331 718 342 715T354 701Q354 687 335 665L278 602Q263 586 245 579T204 572Q180 572 172 576Z"
/>
<glyph unicode="&#xfe;" glyph-name="thorn" horiz-adv-x="573" d="M70 -206T70 -174V722Q70 754 130 754H158Q218 754 218 722V470Q237 498 270 514T344 531Q398 531 440 500T507 407T531 261Q531 137 476 65T320 -8Q261 -8 218 23V-174Q218 -206 158 -206H130Q70
-206 70 -174ZM381 109T381 261Q381 410 300 410Q252 410 218 351V128Q252 109 288 109Q381 109 381 261Z" />
<glyph unicode="&#xff;" glyph-name="ydieresis" horiz-adv-x="481" d="M477 525T477 503Q477 496 474 485L245 -185Q238 -206 189 -206H172Q112 -206 112 -185Q112 -176 116 -167L179 2L14 485Q10 499 10 503Q10 525 71 525H103Q152 525 159 504L218 319Q227
291 246 198H250Q270 294 278 319L337 504Q344 525 393 525H417Q477 525 477 503ZM117 581T103 588T88 613V677Q88 694 102 701T150 709Q183 709 197 702T212 677V613Q212 596 198 589T150 581Q117 581 103 588ZM299 581T285 588T270 613V677Q270 694 284 701T332
709Q365 709 379 702T394 677V613Q394 596 380 589T332 581Q299 581 285 588Z" />
<glyph unicode="&#x2013;" glyph-name="endash" horiz-adv-x="500" d="M52 212T45 224T38 262V269Q38 295 45 307T68 319H432Q448 319 455 307T462 269V262Q462 236 455 224T432 212H68Q52 212 45 224Z" />
<glyph unicode="&#x2014;" glyph-name="emdash" horiz-adv-x="1000" d="M62 212T55 224T48 262V269Q48 295 55 307T78 319H922Q938 319 945 307T952 269V262Q952 236 945 224T922 212H78Q62 212 55 224Z" />
<glyph unicode="&#x2018;" glyph-name="quoteleft" horiz-adv-x="212" d="M63 478T48 490T33 522Q33 575 57 629T115 720T171 757Q187 757 201 752T216 735Q216 724 210 709Q208 705 197 679T179 611T172 522Q172 478 112 478H93Q63 478 48 490Z" />
<glyph unicode="&#x2019;" glyph-name="quoteright" horiz-adv-x="212" d="M38 478T24 483T9 500Q9 512 16 529Q33 572 43 609T53 713Q53 757 113 757H132Q162 757 177 745T192 713Q192 660 168 606T110 515T54 478Q38 478 24 483Z" />
<glyph unicode="&#x201a;" glyph-name="quotesinglbase" horiz-adv-x="198" d="M7 -125T-7 -120T-22 -103Q-22 -91 -15 -74Q2 -31 12 6T22 110Q22 154 82 154H101Q131 154 146 142T161 110Q161 57 137 3T79 -88T23 -125Q7 -125 -7 -120Z" />
<glyph unicode="&#x201c;" glyph-name="quotedblleft" horiz-adv-x="350" d="M233 478T218 490T203 522Q203 575 227 629T285 720T341 757Q357 757 371 752T386 735Q386 724 380 709Q378 705 367 679T349 611T342 522Q342 478 282 478H263Q233 478 218 490ZM312
478T297 490T282 522Q282 575 306 629T364 720T420 757Q436 757 450 752T465 735Q465 724 459 709Q457 705 446 679T428 611T421 522Q421 478 361 478H342Q312 478 297 490Z" />
<glyph unicode="&#x201d;" glyph-name="quotedblright" horiz-adv-x="350" d="M188 478T174 483T159 500Q159 512 166 529Q183 572 193 609T203 713Q203 757 263 757H282Q312 757 327 745T342 713Q342 660 318 606T260 515T204 478Q188 478 174 483ZM266 478T252
483T237 500Q237 512 244 529Q261 572 271 609T281 713Q281 757 341 757H360Q390 757 405 745T420 713Q420 660 396 606T338 515T282 478Q266 478 252 483Z" />
<glyph unicode="&#x201e;" glyph-name="quotedblbase" horiz-adv-x="350" d="M172 -125T158 -120T143 -103Q143 -91 150 -74Q167 -31 177 6T187 110Q187 154 247 154H266Q296 154 311 142T326 110Q326 57 302 3T244 -88T188 -125Q172 -125 158 -120ZM250 -125T236
-120T221 -103Q221 -91 228 -74Q245 -31 255 6T265 110Q265 154 325 154H344Q374 154 389 142T404 110Q404 57 380 3T322 -88T266 -125Q250 -125 236 -120Z" />
<glyph unicode="&#x2022;" glyph-name="bullet" horiz-adv-x="336" d="M132 194T102 211T54 259T36 326Q36 362 54 392T102 441T168 459Q204 459 234 441T283 393T301 326Q301 290 283 260T235 212T168 194Q132 194 102 211Z" />
<glyph unicode="&#x2039;" glyph-name="guilsinglleft" horiz-adv-x="300" d="M184 46T170 61L43 214Q34 224 31 234T27 258Q27 272 30 282T43 302L170 455Q183 469 197 469Q213 469 234 453T256 420Q256 410 247 398L137 258L247 118Q256 106 256 95Q256 80 235
63T197 46Q184 46 170 61Z" />
<glyph unicode="&#x203a;" glyph-name="guilsinglright" horiz-adv-x="300" d="M86 46T65 63T44 95Q44 106 53 118L163 258L53 398Q44 410 44 420Q44 436 65 452T103 469Q119 469 130 455L257 302Q266 292 269 282T273 258Q273 244 270 234T257 214L130 61Q118
46 103 46Q86 46 65 63Z" />
</font>
</defs>
</svg>
