<?xml version="1.0" standalone="no"?>
<!DOCTYPE svg PUBLIC "-//W3C//DTD SVG 1.1//EN" "http://www.w3.org/Graphics/SVG/1.1/DTD/svg11.dtd">
<svg xmlns="http://www.w3.org/2000/svg">
<defs >
<font id="Asap" horiz-adv-x="535" ><font-face
    font-family="Asap"
    units-per-em="1000"
    panose-1="2 15 5 4 3 2 2 13 2 3"
    ascent="934"
    descent="-212"
    alphabetic="0" />
<glyph unicode=" " glyph-name="space" horiz-adv-x="240" />
<glyph unicode="!" glyph-name="exclam" horiz-adv-x="294" d="M96 202T99 225L146 680Q149 702 188 702H208Q248 702 245 680L170 224Q167 202 137 202H126Q96 202 99 225ZM82 -2T74 3T65 20L72 86Q74 108 114 108H131Q171 108 169 86L162 20Q159 -2 120 -2H103Q82
-2 74 3Z" />
<glyph unicode="&quot;" glyph-name="quotedbl" horiz-adv-x="319" d="M95 472T95 484V680Q95 702 137 702H147Q169 702 178 697T184 678L141 484Q138 472 117 472H116Q95 472 95 484ZM223 472T223 484V680Q223 702 265 702H275Q297 702 306 697T312 678L269 484Q266
472 245 472H244Q223 472 223 484Z" />
<glyph unicode="#" glyph-name="numbersign" horiz-adv-x="534" d="M46 -2T52 19L102 196H28Q8 196 9 224L10 240Q13 273 36 273H125L167 420H87Q67 420 68 448L69 464Q72 497 95 497H188L236 664Q239 676 248 681T283 686H287Q318 686 313 668L262 497H381L428
664Q431 676 440 681T475 686H480Q510 686 505 668L457 497H524Q544 497 543 469L542 453Q539 420 516 420H434L393 273H467Q487 273 486 245L485 229Q482 196 459 196H369L320 20Q317 8 308 3T274 -2H270Q239 -2 245 19L295 196H177L127 20Q124 8 115 3T81 -2H77Q46
-2 52 19ZM318 273L360 420H242L200 273H318Z" />
<glyph unicode="$" glyph-name="dollar" horiz-adv-x="500" d="M201 -68T198 -64T194 -48L198 -6Q81 0 49 32Q37 44 37 56Q37 121 53 121Q55 121 60 118T72 110Q135 77 206 76L233 324Q178 346 146 364T91 414T68 498Q68 583 124 638T273 704L277 735Q279 746
283 750T299 755H301Q317 755 317 735L314 706Q350 705 389 696T449 671Q465 658 465 646Q465 636 450 614T427 592Q423 592 407 601Q384 614 362 621T306 630L281 403Q334 381 368 360T427 303T451 214Q451 122 393 63T238 -4L234 -48Q233 -68 212 -68H211Q201
-68 198 -64ZM265 627Q217 618 188 588T158 508Q158 476 179 456T243 418L265 627ZM296 82T328 117T360 202Q360 241 337 264T271 308L246 73Q296 82 328 117Z" />
<glyph unicode="%" glyph-name="percent" horiz-adv-x="765" d="M148 381T113 409T78 510Q78 619 124 662T234 706Q286 706 321 677T356 574Q356 491 318 436T200 381Q148 381 113 409ZM119 -2T114 -1T109 4Q109 8 114 15L600 695Q604 700 608 701T623 703H629Q650
703 650 697Q650 693 645 686L164 10Q159 3 153 1T135 -2H131Q119 -2 114 -1ZM252 436T272 477T292 575Q292 652 228 652Q144 652 144 509Q144 476 157 456T205 436Q252 436 272 477ZM478 -6T443 22T408 123Q408 232 454 275T564 319Q616 319 651 290T686 187Q686
104 648 49T530 -6Q478 -6 443 22ZM582 49T602 90T622 188Q622 265 558 265Q474 265 474 122Q474 89 487 69T535 49Q582 49 602 90Z" />
<glyph unicode="&amp;" glyph-name="ampersand" horiz-adv-x="624" d="M184 -6T138 12T62 71T32 175Q32 232 54 277T110 350T179 387L180 391Q140 407 116 440T91 520Q91 580 120 622T200 685T312 706Q391 706 391 679Q391 667 382 648T364 628Q359 628 345 631T306
634Q231 634 203 596T174 518Q174 475 204 442T297 408H416L436 509Q438 521 446 526T474 531H477Q496 531 503 526T508 508L498 408H572Q584 408 588 401T591 378L590 366Q587 336 567 336H490L469 130Q468 125 468 115Q468 86 480 75T515 64Q534 64 546 67T562
71Q568 71 568 62Q568 51 564 27Q561 10 541 2T496 -6Q428 -6 401 36Q370 18 328 6T235 -6Q184 -6 138 12ZM285 66T321 76T384 103Q384 115 390 174T399 264L407 336H285Q209 336 165 302T120 184Q120 121 159 94T251 66Q285 66 321 76Z" />
<glyph unicode="&apos;" glyph-name="quotesingle" horiz-adv-x="183" d="M91 472T91 484V680Q91 702 133 702H143Q165 702 174 697T180 678L137 484Q134 472 113 472H112Q91 472 91 484Z" />
<glyph unicode="(" glyph-name="parenleft" horiz-adv-x="301" d="M321 783T330 776T339 760Q339 749 328 736Q238 642 185 497T131 192Q131 86 157 -6T232 -164Q239 -172 239 -181Q239 -189 230 -200T208 -212Q198 -212 187 -201Q122 -135 86 -32T50 196Q50 314
80 424T165 624T290 773Q300 783 312 783Q321 783 330 776Z" />
<glyph unicode=")" glyph-name="parenright" horiz-adv-x="301" d="M102 784T113 773Q178 707 214 604T250 376Q250 258 220 148T135 -52T10 -201Q0 -211 -11 -211Q-21 -211 -30 -203T-40 -186Q-40 -179 -31 -170Q66 -69 117 81T169 379Q169 485 143 577T68 736Q61
744 61 753Q61 761 70 772T92 784Q102 784 113 773Z" />
<glyph unicode="*" glyph-name="asterisk" horiz-adv-x="373" d="M105 414T98 420T91 432Q91 440 97 447L179 546L84 578Q72 583 72 591Q72 602 78 609T92 617Q98 617 101 616L197 584L208 689Q209 709 230 709Q240 709 244 705T248 689L237 584L339 616Q342 617
348 617Q354 617 359 612T364 596Q364 582 348 578L246 546L307 447Q311 439 311 436Q311 429 303 422T287 414Q278 414 273 423L211 524L127 423Q118 414 111 414Q105 414 98 420Z" />
<glyph unicode="+" glyph-name="plus" horiz-adv-x="560" d="M232 -2T226 3T221 20L239 197H65Q43 197 46 223L47 236Q48 253 53 258T71 264H246L265 443Q266 454 273 458T297 463H304Q320 463 326 458T332 441L313 264H489Q498 264 503 259T507 240L506 225Q505
210 498 204T481 197H306L287 18Q286 -2 255 -2H248Q232 -2 226 3Z" />
<glyph unicode="," glyph-name="comma" horiz-adv-x="198" d="M18 -116T10 -113T1 -102Q1 -97 4 -91T9 -84Q34 -46 46 -10T63 76Q65 91 75 99T106 108H115Q152 108 152 80Q146 24 124 -20T75 -90T29 -116Q18 -116 10 -113Z" />
<glyph unicode="-" glyph-name="hyphen" horiz-adv-x="320" d="M42 229T45 257L46 271Q47 288 53 294T72 301H257Q279 301 276 273L275 259Q273 229 249 229H65Q42 229 45 257Z" />
<glyph unicode="." glyph-name="period" horiz-adv-x="198" d="M113 108T121 103T130 86L123 20Q121 -2 81 -2H64Q43 -2 35 3T26 20L33 86Q35 108 75 108H92Q113 108 121 103Z" />
<glyph unicode="/" glyph-name="slash" horiz-adv-x="422" d="M1 -79T-4 -77T-9 -69Q-9 -65 -6 -59L377 687Q382 696 388 699T409 702H415Q441 702 441 692Q441 688 434 674L57 -59Q51 -70 44 -74T20 -79H15Q1 -79 -4 -77Z" />
<glyph unicode="0" glyph-name="zero" d="M184 -6T140 24T71 115T45 269Q45 414 84 512T184 658T314 706Q369 706 413 676T484 583T510 427Q510 283 471 186T369 41T239 -6Q184 -6 140 24ZM288 66T329 102T397 220T425 425Q425 532 391 583T306 634Q264 634 224
597T157 478T130 270Q130 165 163 116T247 66Q288 66 329 102Z" />
<glyph unicode="1" glyph-name="one" d="M22 0T24 29L25 42Q28 72 49 72H223L280 611L103 581Q93 580 89 592T84 621Q84 636 88 642T105 651L342 702Q354 702 363 695T371 681L307 72H455Q475 72 473 43L472 30Q469 0 448 0H42Q22 0 24 29Z" />
<glyph unicode="2" glyph-name="two" d="M43 0T37 18T30 52Q30 59 32 61L341 403Q408 477 408 543Q408 585 378 609T293 634Q251 634 221 623T162 594Q142 583 138 583Q131 583 121 601T111 631Q111 651 143 668T221 696T299 706Q390 706 442 665T495 556Q495
503 477 461T414 370L143 71H431Q441 71 445 64T448 41L447 30Q444 0 424 0H50Q43 0 37 18Z" />
<glyph unicode="3" glyph-name="three" d="M166 -6T128 3T68 25T47 52Q47 63 58 81T77 100Q81 100 101 91T148 74T216 66Q277 66 326 103T375 228Q375 287 340 311T238 336H206Q193 336 189 341T186 361L188 378Q190 395 195 401T214 407H241Q292 407 325 431T373
488T388 548Q388 583 364 608T279 634Q237 634 209 627T154 608Q137 601 132 601Q124 601 114 620T104 652Q104 666 136 678T212 698T289 706Q374 706 423 668T473 554Q473 494 440 452T355 391L354 387Q399 375 430 333T462 228Q462 147 424 95T329 18T216 -6Q166
-6 128 3Z" />
<glyph unicode="4" glyph-name="four" d="M332 -2T326 3T320 20L335 167H31Q24 167 19 182T13 212Q13 226 16 229L393 688Q405 702 428 702H444Q474 702 472 680L426 239H495Q506 239 509 234T512 214L510 197Q508 179 503 173T487 167H418L403 20Q402 10 394
4T371 -2H348Q332 -2 326 3ZM343 239L364 439Q375 527 385 569L381 571L114 239H343Z" />
<glyph unicode="5" glyph-name="five" d="M149 -6T112 3T55 25T34 52Q34 63 45 81T64 100Q68 100 84 93Q110 81 137 74T203 66Q281 66 327 107T374 232Q374 290 332 320T208 350H123Q110 350 104 355T98 372Q98 378 99 382L145 670Q149 700 181 700H449Q460 700
463 695T466 675L464 658Q462 640 457 634T441 628H222L187 422H239Q329 422 394 379T460 241Q460 149 420 94T321 17T196 -6Q149 -6 112 3Z" />
<glyph unicode="6" glyph-name="six" d="M142 -5T95 47T47 197Q47 343 120 457T287 637T423 702Q436 702 443 685T450 651Q450 642 441 638Q338 592 269 525T166 372Q226 405 304 405Q379 405 427 357T475 229Q475 160 443 107T356 24T236 -5Q142 -5 95 47ZM281
67T313 84T368 135T390 219Q390 277 357 305T272 333Q207 333 143 299Q137 270 134 249T131 202Q131 127 164 97T249 67Q281 67 313 84Z" />
<glyph unicode="7" glyph-name="seven" d="M101 -2T91 1T81 13Q81 19 86 28L438 628H122Q111 628 108 633T105 653L107 670Q109 688 114 694T130 700H520Q529 700 534 686T540 655Q540 644 537 638L175 14Q165 -2 134 -2H122Q101 -2 91 1Z" />
<glyph unicode="8" glyph-name="eight" d="M154 -6T99 40T43 176Q43 247 76 301T175 380Q144 401 126 435T107 515Q107 576 135 619T209 684T311 706Q390 706 440 666T491 550Q491 486 459 444T377 381Q426 357 452 323T479 226Q479 149 447 97T361 20T244 -6Q154
-6 99 40ZM353 433T380 465T407 542Q407 588 378 611T303 634Q255 634 223 606T191 522Q191 489 206 468T244 435T307 408Q353 433 380 465ZM288 66T320 82T373 132T393 214Q393 250 377 273T336 309T270 338L239 350Q185 321 158 282T130 186Q130 128 164 97T252
66Q288 66 320 82Z" />
<glyph unicode="9" glyph-name="nine" d="M115 -1T108 16T101 50Q101 59 110 63Q213 109 282 176T385 329Q325 296 247 296Q172 296 124 344T76 472Q76 541 108 594T195 677T315 706Q409 706 456 654T504 504Q504 358 431 244T264 64T128 -1Q115 -1 108 16ZM344
368T408 402Q414 431 417 452T420 499Q420 574 387 604T302 634Q270 634 238 617T183 566T161 482Q161 424 194 396T279 368Q344 368 408 402Z" />
<glyph unicode=":" glyph-name="colon" horiz-adv-x="198" d="M156 525T164 520T173 503L166 437Q163 415 124 415H107Q86 415 78 420T69 437L76 503Q78 525 118 525H135Q156 525 164 520ZM112 108T120 103T129 86L122 20Q119 -2 80 -2H63Q42 -2 34 3T25 20L32
86Q34 108 74 108H91Q112 108 120 103Z" />
<glyph unicode=";" glyph-name="semicolon" horiz-adv-x="198" d="M162 525T170 520T179 503L172 437Q169 415 130 415H113Q92 415 84 420T75 437L82 503Q84 525 124 525H141Q162 525 170 520ZM2 -116T-6 -113T-15 -102Q-15 -97 -12 -91T-7 -84Q18 -46 30 -10T47
76Q49 91 59 99T90 108H99Q136 108 136 80Q130 24 108 -20T59 -90T13 -116Q2 -116 -6 -113Z" />
<glyph unicode="&lt;" glyph-name="less" horiz-adv-x="560" d="M466 4T454 9L61 184Q49 190 44 196T39 214L41 235Q42 250 49 258T70 271L508 447Q514 450 520 450Q537 450 534 424L532 409Q530 392 524 384T504 371L121 226L479 79Q493 74 493 52Q493 45 492
40V36Q489 4 473 4Q466 4 454 9Z" />
<glyph unicode="=" glyph-name="equal" horiz-adv-x="560" d="M51 268T54 296L55 310Q56 327 62 333T81 340H496Q506 340 511 335T515 314L514 298Q513 268 487 268H74Q51 268 54 296ZM34 106T37 134L38 148Q39 165 45 171T64 178H479Q489 178 494 173T498 152L497
136Q496 106 470 106H57Q34 106 37 134Z" />
<glyph unicode="&gt;" glyph-name="greater" horiz-adv-x="560" d="M32 5T29 11T25 32Q25 56 31 66T54 83L430 228L93 368Q75 375 70 383T65 407Q65 431 70 440T86 449Q93 449 113 440L497 270Q509 264 514 257T518 235L517 225Q515 207 510 199T488 183L59 9Q47
5 41 5Q32 5 29 11Z" />
<glyph unicode="?" glyph-name="question" horiz-adv-x="445" d="M135 202T135 223Q135 255 163 299T238 384Q279 421 300 443T335 490T349 543Q349 632 233 632Q205 632 181 625T130 607Q110 598 105 598Q98 598 89 616T79 647Q79 672 137 689T257 706Q346 706
395 664T445 556Q445 516 427 482T384 422T314 355Q271 317 246 287T213 222Q211 212 203 207T178 202H163Q135 202 135 223ZM120 -2T112 3T104 20L111 86Q113 108 153 108H170Q191 108 199 103T208 86L201 20Q198 -2 158 -2H141Q120 -2 112 3Z" />
<glyph unicode="@" glyph-name="at" horiz-adv-x="974" d="M314 -126T240 -81T125 47T84 237Q84 367 143 474T306 643T534 705Q634 705 709 665T825 551T867 380Q867 290 840 215T766 97T657 54Q611 54 586 79T559 146Q510 54 423 54Q389 54 357 70T301 127T278
236Q278 314 304 375T378 470T489 505Q526 505 554 491T600 458Q603 466 607 479T617 497T635 502H641Q663 502 663 481Q630 172 630 149Q630 107 670 107Q706 107 739 145T793 246T813 380Q813 464 778 527T680 626T534 661Q425 661 334 605T191 451T138 237Q138
143 172 71T268 -42T410 -82Q453 -82 484 -75T544 -55Q548 -54 554 -52T563 -49Q567 -49 567 -55Q567 -66 563 -82Q559 -99 511 -112T410 -126Q314 -126 240 -81ZM473 115T508 148T568 256Q569 265 575 327T587 409Q546 443 495 443Q416 443 384 386T351 241Q351
174 375 145T439 115Q473 115 508 148Z" />
<glyph unicode="A" glyph-name="A" horiz-adv-x="613" d="M-13 -2T-13 14Q-13 19 -8 29L297 686Q304 702 338 702H367Q402 702 406 686L574 28Q575 24 575 18Q575 -2 531 -2H523Q488 -2 484 14L442 178H148L74 14Q67 -2 33 -2H28Q-13 -2 -13 14ZM423 254L350 552Q344
575 344 610H342Q330 573 321 552L184 254H423Z" />
<glyph unicode="B" glyph-name="B" horiz-adv-x="593" d="M56 0T59 24L126 670Q127 686 135 693T159 700H343Q445 700 499 658T553 544Q553 482 515 434T423 371L422 367Q475 352 512 314T549 219Q549 108 475 54T263 0H86Q56 0 59 24ZM307 398Q375 398 418 434T461
532Q461 579 428 601T326 624H209L186 398H307ZM303 76Q379 76 418 114T458 220Q458 269 421 295T312 322H178L152 76H303Z" />
<glyph unicode="C" glyph-name="C" horiz-adv-x="619" d="M180 -6T109 62T38 275Q38 484 132 595T404 706Q452 706 497 696T567 670Q588 657 588 645Q588 633 573 610T548 586Q545 586 524 598T472 620T398 630Q266 630 198 543T130 285Q130 175 180 123T335 70Q384
70 420 82T492 111Q507 120 512 120Q520 120 530 100T541 67Q541 60 532 51T506 33Q475 17 427 6T327 -6Q180 -6 109 62Z" />
<glyph unicode="D" glyph-name="D" horiz-adv-x="695" d="M57 0T60 24L127 670Q128 686 136 693T160 700H375Q502 700 577 632T653 415Q653 268 605 175T477 41T302 0H87Q57 0 60 24ZM303 76Q372 76 431 109T526 215T562 401Q562 519 508 571T360 624H210L153 76H303Z" />
<glyph unicode="E" glyph-name="E" horiz-adv-x="546" d="M57 0T51 6T45 29L112 669Q113 685 121 692T145 700H497Q517 700 516 672L515 657Q512 624 489 624H195L171 396H433Q453 396 452 368L451 353Q448 320 425 320H163L138 76H433Q453 76 452 48L451 33Q448
0 425 0H72Q57 0 51 6Z" />
<glyph unicode="F" glyph-name="F" horiz-adv-x="503" d="M65 -2T57 3T49 20L117 670Q118 686 126 693T150 700H465Q485 700 484 672L483 657Q480 624 457 624H200L174 376H424Q444 376 443 348L442 333Q439 300 416 300H166L137 20Q136 10 125 4T95 -2H87Q65 -2 57 3Z" />
<glyph unicode="G" glyph-name="G" horiz-adv-x="672" d="M52 -6T52 275Q52 491 149 598T418 706Q464 706 507 697T576 673T602 645Q602 633 587 610T562 586Q559 586 538 598T483 620T404 630Q275 630 210 541T144 288Q144 70 342 70Q379 70 415 73T472 83L494
285H377Q357 285 358 313L359 328Q362 361 385 361H560Q590 361 587 334L559 66Q555 27 491 11T328 -6Q52 -6 52 275Z" />
<glyph unicode="H" glyph-name="H" horiz-adv-x="733" d="M89 -2T81 3T73 20L142 680Q144 702 184 702H192Q232 702 230 680L200 397H562L592 680Q594 702 634 702H642Q682 702 680 680L611 20Q610 9 599 4T569 -2H561Q539 -2 531 3T523 20L554 321H192L161 20Q160
9 149 4T119 -2H111Q89 -2 81 3Z" />
<glyph unicode="I" glyph-name="I" horiz-adv-x="283" d="M89 -2T81 3T74 21L142 680Q144 702 184 702H192Q213 702 221 697T230 680L161 20Q160 9 149 4T119 -2H111Q89 -2 81 3Z" />
<glyph unicode="J" glyph-name="J" horiz-adv-x="402" d="M39 -6T14 1T-11 26Q-11 85 4 85Q9 85 26 81T70 76Q139 76 173 106T215 201L266 680Q268 702 308 702H316Q337 702 345 697T354 680L304 205Q294 106 239 50T77 -6Q39 -6 14 1Z" />
<glyph unicode="K" glyph-name="K" horiz-adv-x="576" d="M61 -2T53 3T44 20L113 680Q115 702 155 702H163Q184 702 192 697T201 680L169 374H173L450 688Q463 702 505 702H515Q531 702 540 699T549 690Q549 681 537 669L259 360L520 28Q527 19 527 12Q526 4 516
1T482 -2H475Q452 -2 440 0T421 11L169 333H165L132 20Q130 9 120 4T90 -2H82Q61 -2 53 3Z" />
<glyph unicode="L" glyph-name="L" horiz-adv-x="484" d="M61 0T55 7T50 30L118 680Q120 702 160 702H168Q208 702 206 680L143 76H432Q452 76 451 48L450 33Q447 0 424 0H77Q61 0 55 7Z" />
<glyph unicode="M" glyph-name="M" horiz-adv-x="843" d="M82 -2T74 3T65 20L134 680Q136 702 176 702H210Q243 702 251 684L405 356Q419 327 425 293Q439 324 457 350L681 684Q692 702 724 702H759Q780 702 788 697T797 680L728 20Q727 9 716 4T686 -2H679Q658
-2 650 3T641 20L692 509L699 561L696 562Q690 549 670 518L460 208Q451 195 436 195H396Q382 195 375 210L233 513Q221 535 208 567L204 565Q206 540 201 492L152 20Q151 9 140 4T110 -2H103Q82 -2 74 3Z" />
<glyph unicode="N" glyph-name="N" horiz-adv-x="719" d="M79 -2T71 3T62 20L131 680Q133 702 173 702H194Q210 702 219 698T234 683L481 250Q514 192 522 171T533 145L537 146Q537 180 542 232L589 680Q591 702 631 702H638Q659 702 667 697T676 680L607 20Q606
9 595 4T565 -2H545Q519 -2 511 12L249 472Q214 534 206 565L202 564Q204 530 198 484L149 20Q148 9 137 4T107 -2H100Q79 -2 71 3Z" />
<glyph unicode="O" glyph-name="O" horiz-adv-x="731" d="M209 -6T136 73T62 312Q62 486 140 596T402 706Q536 706 611 627T687 386Q687 265 647 177T529 41T345 -6Q209 -6 136 73ZM466 70T530 152T595 379Q595 507 543 568T394 630Q275 630 214 550T153 324Q153
195 205 133T352 70Q466 70 530 152Z" />
<glyph unicode="P" glyph-name="P" horiz-adv-x="570" d="M66 -2T58 4T51 25L118 670Q119 686 127 693T151 700H334Q448 700 503 655T559 519Q559 418 496 358T322 298H167L138 20Q137 10 127 4T96 -2H88Q66 -2 58 4ZM331 374Q395 374 431 410T467 508Q467 566
432 595T323 624H201L175 374H331Z" />
<glyph unicode="Q" glyph-name="Q" horiz-adv-x="731" d="M618 -157T458 -90T219 15Q141 53 102 124T62 312Q62 414 94 503T202 649T402 706Q687 706 687 386Q687 230 623 134T446 5V1L640 -62Q647 -65 649 -69T652 -82Q652 -126 647 -141T631 -157Q618 -157 458
-90ZM466 70T530 152T595 379Q595 507 543 568T394 630Q279 630 216 548T153 314Q153 181 203 126T352 70Q466 70 530 152Z" />
<glyph unicode="R" glyph-name="R" horiz-adv-x="610" d="M83 -2T75 4T68 24L135 670Q136 686 144 693T168 700H331Q445 700 500 655T556 519Q556 451 521 405T423 343V339Q444 331 462 310T489 260L560 28Q562 20 562 17Q562 -2 518 -2H508Q473 -2 469 14L414
210Q403 249 387 270T345 299T275 308H185L155 20Q154 10 143 4T113 -2H105Q83 -2 75 4ZM325 384Q391 384 427 417T464 508Q464 569 430 596T320 624H218L193 384H325Z" />
<glyph unicode="S" glyph-name="S" horiz-adv-x="500" d="M174 -6T132 1T63 22Q49 29 43 40T36 76Q36 97 39 103T52 109Q58 109 85 97Q115 85 145 78T214 70Q275 70 317 107T359 201Q359 233 342 254T299 289T227 322Q175 343 144 361T90 414T67 501Q67 561 97
607T183 680T309 706Q341 706 380 697T443 674Q464 661 464 646Q464 635 451 614T426 592Q421 592 411 597T394 607Q352 630 299 630Q239 630 198 599T157 511Q157 480 173 460T214 427T283 398Q336 377 369 357T426 303T450 215Q450 148 419 98T333 21T206 -6Q174
-6 132 1Z" />
<glyph unicode="T" glyph-name="T" horiz-adv-x="549" d="M224 -2T216 4T209 22L271 624H79Q59 624 60 652L61 667Q64 700 87 700H555Q575 700 574 672L573 657Q570 624 547 624H359L296 20Q295 10 284 4T254 -2H246Q224 -2 216 4Z" />
<glyph unicode="U" glyph-name="U" horiz-adv-x="712" d="M208 -6T143 42T78 183Q78 193 80 213L128 680Q130 702 171 702H179Q200 702 208 697T216 680L167 206Q166 201 166 190Q166 134 208 102T337 70Q425 70 477 110T538 221L586 680Q588 702 629 702H637Q658
702 666 697T674 680L626 224Q615 115 538 55T329 -6Q208 -6 143 42Z" />
<glyph unicode="V" glyph-name="V" horiz-adv-x="617" d="M231 -2T227 16L63 679Q61 690 72 696T108 702H119Q154 702 158 686L278 189Q285 157 292 100H295Q309 148 325 183L552 686Q559 702 593 702H599Q641 702 641 686Q641 681 636 671L338 14Q331 -2 297
-2H266Q231 -2 227 16Z" />
<glyph unicode="W" glyph-name="W" horiz-adv-x="882" d="M167 -2T164 14L59 682Q57 694 69 698T104 702H113Q149 702 152 686L221 244Q234 158 236 101H240Q255 157 271 199L443 685Q447 695 455 698T483 702H499Q534 702 537 685L602 243Q616 148 616 101H620Q632
147 651 201L823 686Q828 702 864 702H870Q918 702 909 679L665 14Q660 -2 624 -2H583Q547 -2 544 14L492 331Q484 382 479 435T474 526L475 551H471Q454 468 420 376L285 14Q278 -2 244 -2H203Q167 -2 164 14Z" />
<glyph unicode="X" glyph-name="X" horiz-adv-x="611" d="M11 -2T3 1T-6 14Q-6 21 4 33L267 368L104 667Q98 679 98 683Q98 693 106 697T140 702H149Q166 702 176 699T191 687L324 439L516 688Q526 702 560 702H566Q590 702 600 698T611 686Q611 681 601 667L366
368L549 33Q555 21 555 17Q555 7 547 3T513 -2H502Q485 -2 475 1T460 13L310 295L100 24Q88 8 75 3T46 -2H33Q11 -2 3 1Z" />
<glyph unicode="Y" glyph-name="Y" horiz-adv-x="559" d="M227 -2T219 3T210 20L245 359L69 667Q63 676 63 683Q63 693 73 697T110 702H119Q136 702 146 699T161 687L299 441L493 688Q503 702 539 702H550Q586 701 586 686Q586 681 576 667L333 356L298 20Q297
9 286 4T256 -2H248Q227 -2 219 3Z" />
<glyph unicode="Z" glyph-name="Z" horiz-adv-x="616" d="M30 0T24 15T18 47Q18 60 26 69L491 624H132Q121 624 116 632T112 654L114 671Q116 688 122 694T140 700H591Q603 700 608 686T614 652Q614 641 609 635L141 76H531Q542 76 547 69T551 48L549 33Q545 0
523 0H41Q30 0 24 15Z" />
<glyph unicode="[" glyph-name="bracketleft" horiz-adv-x="291" d="M56 -138T50 -131T45 -106L134 738Q135 754 143 761T167 768H282Q296 768 301 763T306 743L305 732Q304 717 297 712T275 706H204L122 -76H193Q219 -76 218 -98L217 -112Q215 -138 192 -138H72Q56
-138 50 -131Z" />
<glyph unicode="\" glyph-name="backslash" horiz-adv-x="422" d="M315 -79T307 -74T296 -59L76 674Q75 679 73 684T71 692Q71 702 98 702H104Q119 702 125 699T134 687L359 -59L361 -69Q361 -79 336 -79H331Q315 -79 307 -74Z" />
<glyph unicode="]" glyph-name="bracketright" horiz-adv-x="291" d="M-6 -138T-11 -133T-16 -113L-15 -102Q-14 -87 -7 -82T15 -76H86L168 706H97Q71 706 72 728L73 742Q75 768 98 768H218Q234 768 240 761T245 736L156 -108Q155 -124 147 -131T123 -138H8Q-6
-138 -11 -133Z" />
<glyph unicode="^" glyph-name="asciicircum" horiz-adv-x="450" d="M410 337T410 332Q410 326 404 323T381 320H377Q360 320 354 323T344 338L265 609L125 335Q121 326 114 323T91 320H84Q71 320 66 323T61 332Q61 339 69 355L227 664Q233 675 241 679T263 684H283Q296
684 303 680T315 664L405 354Q410 337 410 332Z" />
<glyph unicode="_" glyph-name="underscore" horiz-adv-x="534" d="M-52 -138T-56 -134T-60 -118L-59 -106Q-58 -90 -39 -90H497Q508 -90 512 -93T515 -107L514 -120Q513 -138 492 -138H-42Q-52 -138 -56 -134Z" />
<glyph unicode="`" glyph-name="grave" horiz-adv-x="161" d="M150 576T139 580T116 600L69 660Q58 674 52 684T46 700Q46 710 58 714T96 718Q125 718 137 712T155 692L187 616Q195 597 195 590Q195 583 189 580T172 576Q150 576 139 580Z" />
<glyph unicode="a" glyph-name="a" horiz-adv-x="545" d="M169 -6T131 13T67 81T40 210Q40 303 70 375T156 488T285 529Q355 529 412 475Q421 502 429 513T457 525H463Q478 525 483 518T487 494L448 107Q443 64 474 64Q486 64 496 67T511 71Q517 71 517 63Q517
49 513 27Q510 10 491 2T453 -6Q405 -6 383 21T363 102Q334 46 294 20T207 -6Q169 -6 131 13ZM265 67T306 106T375 236L390 367Q393 398 397 417Q348 456 281 456Q231 456 197 422T145 333T127 216Q127 136 154 102T226 67Q265 67 306 106Z" />
<glyph unicode="b" glyph-name="b" horiz-adv-x="569" d="M203 -6T169 10T113 48Q99 -2 71 -2H63Q36 -2 38 20L113 730Q114 742 124 747T155 752H159Q180 752 188 747T197 730L165 425Q195 478 236 503T324 529Q367 529 409 511T481 445T511 316Q511 223 478 150T385
36T246 -6Q203 -6 169 10ZM340 67T382 135T424 310Q424 390 392 423T305 456Q264 456 222 418T151 290L137 156Q135 134 129 106Q175 67 238 67Q340 67 382 135Z" />
<glyph unicode="c" glyph-name="c" horiz-adv-x="485" d="M157 -6T102 45T47 206Q47 359 117 444T315 529Q369 529 412 516T455 484Q455 472 441 451T418 429Q415 429 407 433Q359 457 306 457Q224 457 181 394T137 212Q137 136 169 101T274 66Q325 66 380 92L392
96Q401 96 410 78T420 47Q420 35 398 23T341 2T268 -6Q157 -6 102 45Z" />
<glyph unicode="d" glyph-name="d" horiz-adv-x="565" d="M186 -6T144 13T71 81T41 210Q41 302 72 375T160 488T292 529Q374 529 428 484L455 730Q456 742 466 747T497 752H501Q523 752 532 746T539 726L475 107Q470 64 501 64Q513 64 523 67T538 71Q544 71 544
63Q544 49 540 27Q537 10 518 2T480 -6Q432 -6 411 20T390 102Q360 46 319 20T229 -6Q186 -6 144 13ZM289 67T331 106T402 234L421 418Q373 456 304 456Q209 456 169 388T129 216Q129 134 159 101T248 67Q289 67 331 106Z" />
<glyph unicode="e" glyph-name="e" horiz-adv-x="539" d="M170 213T133 220V210Q133 131 170 99T279 66Q321 66 352 77T413 105Q430 115 434 115Q438 115 439 113T441 103Q441 84 436 58Q432 36 402 22T335 1T272 -6Q46 -6 46 201Q46 345 113 437T315 529Q376
529 415 508T471 456T489 396Q489 300 412 257T219 213Q170 213 133 220ZM241 457T195 412T138 285H209Q272 285 337 304T402 388Q402 419 377 438T312 457Q241 457 195 412Z" />
<glyph unicode="f" glyph-name="f" horiz-adv-x="325" d="M89 -2T81 3T72 20L117 451H77Q57 451 60 478L61 493Q63 509 68 516T85 523H125L135 624Q148 756 278 756Q349 756 349 725Q349 715 340 696T323 677Q321 677 311 680T278 684Q252 684 237 670T218 614L209
523H292Q304 523 309 516T312 493L311 481Q308 451 288 451H201L156 20Q153 -2 114 -2H110Q89 -2 81 3Z" />
<glyph unicode="g" glyph-name="g" horiz-adv-x="546" d="M489 525T494 520T500 504L457 99Q445 -19 415 -87T336 -183T213 -212Q165 -212 126 -201T64 -173T41 -141Q41 -86 55 -86Q58 -86 79 -101T134 -128T213 -140Q287 -140 326 -82T375 108Q345 52 304 26T214
0Q175 0 136 19T69 85T42 210Q42 303 73 375T160 488T292 529Q365 529 424 475Q433 502 441 513T469 525H475Q489 525 494 520ZM403 385T409 417Q357 456 300 456Q206 456 168 389T129 216Q129 140 157 107T233 73Q274 73 316 113T388 244L401 367Q403 385 409
417Z" />
<glyph unicode="h" glyph-name="h" horiz-adv-x="565" d="M375 -6T375 89Q375 104 376 112L401 369Q402 375 402 386Q402 456 336 456Q288 456 243 420T167 297L138 20Q137 10 126 4T96 -2H92Q73 -2 63 4T54 19L129 730Q130 742 140 747T171 752H175Q216 752 213
730L181 432Q253 529 356 529Q421 529 454 496T487 403Q487 387 486 379L459 107Q454 64 485 64Q497 64 507 67T522 71Q528 71 528 63Q528 49 524 27Q521 10 502 2T464 -6Q375 -6 375 89Z" />
<glyph unicode="i" glyph-name="i" horiz-adv-x="265" d="M109 -6T87 16T64 86Q64 101 65 109L104 503Q105 515 115 520T146 525H150Q171 525 180 520T188 503L149 107L148 95Q148 79 154 72T173 64Q185 64 195 67T210 71Q216 71 216 63Q216 49 212 27Q209 10
189 2T144 -6Q109 -6 87 16ZM366 595T368 617L374 677Q376 699 421 699Q444 699 453 694T462 677L456 617Q454 595 410 595Q366 595 368 617Z" />
<glyph unicode="j" glyph-name="j" horiz-adv-x="276" d="M-23 -212T-45 -201T-67 -171Q-67 -123 -56 -123Q-53 -123 -39 -131T0 -140Q26 -140 41 -124T60 -66L120 503Q123 525 162 525H166Q187 525 195 520T204 503L143 -74Q135 -152 98 -182T11 -212Q-23 -212
-45 -201ZM385 595T387 617L393 677Q395 699 440 699Q463 699 472 694T481 677L475 617Q473 595 429 595Q385 595 387 617Z" />
<glyph unicode="k" glyph-name="k" horiz-adv-x="521" d="M71 -2T63 3T54 20L129 730Q131 752 171 752H175Q196 752 204 747T213 730L166 283H170L394 511Q407 525 448 525H452Q468 525 477 522T486 513Q486 504 474 492L256 272L457 28Q464 18 464 14Q464 5 455
2T419 -2H415Q394 -2 381 0T362 11L166 248H162L138 20Q135 -2 96 -2H92Q71 -2 63 3Z" />
<glyph unicode="l" glyph-name="l" horiz-adv-x="297" d="M120 -6T99 18T78 95Q78 114 79 125L141 730Q142 742 152 747T183 752H187Q228 752 225 730L161 107Q156 64 187 64Q199 64 209 67T224 71Q230 71 230 63Q230 49 226 27Q223 10 204 2T166 -6Q120 -6 99 18Z" />
<glyph unicode="m" glyph-name="m" horiz-adv-x="848" d="M803 71T803 63Q803 49 799 27Q796 10 777 2T739 -6Q694 -6 672 16T649 86Q649 103 650 112L676 359Q677 365 677 377Q677 417 657 436T601 456Q564 456 523 421T452 304L422 20Q421 9 410 4T380 -2H376Q336
-2 338 21L374 369Q375 374 375 384Q375 421 355 438T299 456Q261 456 221 422T151 307L121 20Q118 -2 79 -2H75Q55 -2 45 4T37 21L45 90Q81 412 81 457Q81 475 81 481T80 491Q80 505 100 509T136 514Q150 514 156 494T162 447V428Q194 479 237 504T329 529Q391
529 422 500T460 421Q492 475 537 502T631 529Q696 529 729 496T762 403Q762 387 761 379L734 107Q729 64 760 64Q772 64 782 67T797 71Q803 71 803 63Z" />
<glyph unicode="n" glyph-name="n" horiz-adv-x="557" d="M524 71T524 63Q524 49 520 27Q517 10 498 2T460 -6Q371 -6 371 89Q371 104 372 112L397 369Q398 374 398 384Q398 421 378 438T322 456Q281 456 237 419T163 295L134 20Q133 9 122 4T92 -2H88Q49 -2 51
21L83 321Q94 424 94 457Q94 475 94 481T93 491Q93 505 113 509T149 514Q175 514 175 447V428Q249 529 352 529Q417 529 450 496T483 403Q483 387 482 379L455 107Q450 64 481 64Q493 64 503 67T518 71Q524 71 524 63Z" />
<glyph unicode="o" glyph-name="o" horiz-adv-x="569" d="M165 -6T109 53T52 219Q52 353 114 441T306 529Q406 529 461 470T517 302Q517 151 453 73T269 -6Q165 -6 109 53ZM430 66T430 300Q430 377 396 417T295 457Q216 457 177 396T138 222Q138 146 173 106T274
66Q430 66 430 300Z" />
<glyph unicode="p" glyph-name="p" horiz-adv-x="573" d="M372 529T414 510T486 444T516 318Q516 224 485 151T397 36T265 -6Q221 -6 187 10T130 47L106 -186Q104 -197 94 -202T64 -208H60Q41 -208 31 -202T22 -187L81 383Q87 440 87 457Q87 475 87 481T86 491Q86
505 106 509T142 514Q168 514 168 439V427Q198 480 239 504T329 529Q372 529 414 510ZM350 66T389 135T429 312Q429 456 310 456Q269 456 227 417T155 290L137 111Q156 94 185 80T253 66Q350 66 389 135Z" />
<glyph unicode="q" glyph-name="q" horiz-adv-x="566" d="M507 525T512 520T518 503L446 -186Q445 -198 435 -203T404 -208H400Q379 -208 370 -203T362 -184L391 98Q361 45 320 20T232 -6Q189 -6 147 13T75 81T45 210Q45 303 78 375T171 488T310 529Q353 529 387
513T443 475Q457 525 485 525H493Q507 525 512 520ZM418 347Q422 383 429 416Q382 456 318 456Q216 456 174 389T132 216Q132 67 251 67Q292 67 334 105T405 233L418 347Z" />
<glyph unicode="r" glyph-name="r" horiz-adv-x="366" d="M81 -2T71 4T62 19L100 373Q103 406 103 428Q103 451 101 467T99 487Q99 514 166 514Q178 514 183 501T189 465Q189 452 188 445Q212 484 246 506T319 529Q338 529 353 521T369 491Q369 472 362 455T344
437Q341 437 325 442T284 447Q260 447 232 431T183 380L147 21Q144 -2 104 -2H100Q81 -2 71 4Z" />
<glyph unicode="s" glyph-name="s" horiz-adv-x="413" d="M132 -6T100 2T48 24T29 51Q29 70 33 85T45 100Q49 100 68 90T110 73T164 66Q211 66 241 88T272 147Q272 173 261 189T231 214T182 234Q55 279 55 379Q55 448 106 488T234 529Q279 529 320 517T361 483Q361
470 348 452T326 433Q323 433 310 440T279 452T236 457Q189 457 163 439T137 389Q137 365 151 349T183 324T236 301Q275 286 299 271T341 228T358 159Q358 113 335 76T268 16T169 -6Q132 -6 100 2Z" />
<glyph unicode="t" glyph-name="t" horiz-adv-x="342" d="M86 -6T86 106Q86 114 88 134L121 451H70Q50 451 53 478L55 493Q57 509 62 516T79 523H130L151 628Q153 640 161 645T189 650H192Q211 650 218 645T223 627L212 523H294Q306 523 310 516T313 493L312 481Q309
451 289 451H204L171 130Q170 124 170 113Q170 86 182 75T217 64Q236 64 248 67T264 71Q270 71 270 63Q270 49 266 27Q263 10 243 2T197 -6Q86 -6 86 106Z" />
<glyph unicode="u" glyph-name="u" horiz-adv-x="557" d="M521 71T521 63Q521 49 517 27Q514 10 495 2T457 -6Q414 -6 392 17T365 99Q293 -6 189 -6Q124 -6 91 27T58 120Q58 136 59 144L95 503Q96 515 106 520T137 525H141Q162 525 171 520T179 503L144 154Q143
149 143 139Q143 102 163 85T219 67Q261 67 305 106T379 237L407 503Q408 515 418 520T449 525H453Q474 525 483 520T491 503L452 107Q447 64 478 64Q490 64 500 67T515 71Q521 71 521 63Z" />
<glyph unicode="v" glyph-name="v" horiz-adv-x="485" d="M162 -2T158 17L48 502Q45 514 55 519T91 525H96Q131 525 135 509L194 245Q210 173 224 91H229Q259 177 288 245L403 509Q407 518 415 521T440 525H454Q489 525 489 510Q489 503 485 494L273 14Q266 -2
232 -2H197Q162 -2 158 17Z" />
<glyph unicode="w" glyph-name="w" horiz-adv-x="747" d="M142 -2T139 16L54 504Q51 525 99 525H108Q144 525 147 509L198 190Q208 130 208 110H212Q214 118 227 153L240 190L355 508Q362 525 396 525H407Q441 525 444 508L494 190Q505 119 505 110H509Q514 131
536 190L650 500Q655 515 663 520T693 525H704Q724 525 731 522T739 510Q739 503 735 494L550 14Q543 -2 509 -2H476Q441 -2 438 14L395 309Q390 344 388 388H384Q378 358 360 309L252 14Q247 -2 211 -2H178Q142 -2 139 16Z" />
<glyph unicode="x" glyph-name="x" horiz-adv-x="485" d="M14 -2T4 1T-7 13Q-7 23 2 33L189 268L63 490Q56 502 56 508Q58 517 68 521T104 525H113Q130 525 140 522T155 510L218 401Q243 357 251 334Q267 365 294 398L384 511Q394 525 428 525H434Q478 525 478
510Q478 502 469 490L294 270L431 33Q438 23 438 15Q436 6 426 2T390 -2H381Q364 -2 354 1T339 13L263 145Q239 188 234 206Q224 184 196 150L87 12Q76 -2 43 -2H37Q14 -2 4 1Z" />
<glyph unicode="y" glyph-name="y" horiz-adv-x="481" d="M485 525T485 509Q485 503 481 494L152 -187Q142 -208 103 -208H88Q57 -208 57 -193Q57 -188 64 -175L173 35L47 483Q46 489 44 497T41 508Q41 516 52 520T86 525H94Q128 525 132 509L208 227L229 148H231Q246
184 266 227L400 509Q408 525 443 525H447Q485 525 485 509Z" />
<glyph unicode="z" glyph-name="z" horiz-adv-x="489" d="M26 0T20 15T14 46Q14 57 19 62L352 451H96Q76 451 79 478L82 503Q83 511 89 517T105 523H455Q461 523 465 507T470 475Q470 466 462 456L134 72H409Q429 72 426 45L423 20Q422 11 416 6T401 0H31Q26 0 20 15Z" />
<glyph unicode="{" glyph-name="braceleft" horiz-adv-x="274" d="M102 -138T81 -118T60 -48Q60 -34 61 -26L81 181Q82 188 82 200Q82 256 40 274Q18 283 19 303L21 326Q22 338 27 344T49 356Q81 369 94 399T113 485L131 652Q138 716 164 742T221 768H265Q280
768 286 763T290 743L288 732Q286 716 280 711T258 706H243Q223 706 214 691T202 645L184 469Q174 371 89 314Q109 303 130 275T152 199L151 185L134 -28L133 -42Q133 -60 139 -68T160 -76H176Q202 -76 201 -98L200 -112Q198 -138 175 -138H126Q102 -138 81 -118Z"
/>
<glyph unicode="|" glyph-name="bar" horiz-adv-x="250" d="M196 770T201 765T205 748L114 -118Q112 -140 88 -140H78Q65 -140 60 -135T56 -118L147 748Q149 770 173 770H183Q196 770 201 765Z" />
<glyph unicode="}" glyph-name="braceright" horiz-adv-x="274" d="M-8 -138T-14 -133T-18 -113L-16 -102Q-14 -86 -8 -81T14 -76H29Q49 -76 58 -61T70 -15L88 161Q98 259 183 316Q163 327 142 355T120 431L121 445L138 658L139 672Q139 690 133 698T112 706H96Q70
706 71 728L72 742Q74 768 97 768H146Q170 768 191 748T212 678Q212 664 211 656L191 449Q190 442 190 430Q190 373 232 356Q254 347 253 327L251 304Q250 292 245 286T223 274Q191 261 178 231T159 145L141 -22Q134 -86 108 -112T51 -138H7Q-8 -138 -14 -133Z"
/>
<glyph unicode="~" glyph-name="asciitilde" horiz-adv-x="560" d="M93 214T85 219T77 228Q77 237 85 253Q98 279 121 295T184 312Q209 312 234 306T297 289Q320 282 343 277T383 271Q407 271 420 280T444 302T459 315Q465 315 474 310T484 299Q484 295 478 283Q459
245 435 230T368 215Q337 215 269 237Q204 258 174 258Q152 258 139 249T115 227T100 214Q93 214 85 219Z" />
<glyph unicode="&#xa0;" glyph-name="uni00A0" horiz-adv-x="240" />
<glyph unicode="&#xa1;" glyph-name="exclamdown" horiz-adv-x="294" d="M121 415T123 437L130 503Q132 525 172 525H189Q229 525 227 503L220 437Q217 415 178 415H161Q121 415 123 437ZM63 -179T55 -173T48 -155L122 299Q125 321 155 321H166Q196 321 194 299L146
-157Q143 -179 104 -179H84Q63 -179 55 -173Z" />
<glyph unicode="&#xa2;" glyph-name="cent" horiz-adv-x="470" d="M379 441T363 446T324 455L283 67Q330 72 370 92L382 96Q391 96 400 78T410 47Q410 30 369 14T275 -6L270 -53Q269 -71 242 -71H237Q212 -71 213 -53L218 -4Q127 4 82 55T37 206Q37 349 99 433T274
528L279 571Q281 589 306 589H311Q338 589 336 571L331 528Q378 525 411 513T445 484Q445 472 431 451T408 429Q405 429 397 433Q379 441 363 446ZM127 146T150 112T226 69L267 455Q199 444 163 382T127 212Q127 146 150 112Z" />
<glyph unicode="&#xa3;" glyph-name="sterling" horiz-adv-x="530" d="M30 0T30 21L31 30L33 46Q34 58 42 64T69 80Q96 94 112 110T131 159L149 339H98Q74 339 77 367L78 380Q79 398 85 404T103 411H157L166 498Q187 706 393 706Q432 706 461 699T490 674Q490
667 482 646T463 625Q458 625 440 629T401 634Q330 634 294 603T250 503L241 411H382Q393 411 398 405T402 383L401 369Q400 352 394 346T377 339H234L223 239Q214 156 193 121T143 72H426Q437 72 441 66T445 44L444 30Q441 0 419 0H48Q30 0 30 21Z" />
<glyph unicode="&#xa4;" glyph-name="currency" horiz-adv-x="550" d="M455 500T460 498T468 493L471 490Q478 483 478 474Q478 462 465 450L438 426Q464 385 464 339Q464 305 451 274T416 217L438 193Q447 183 447 172Q447 164 439 156L435 152Q426 143 415 143Q406
143 395 154L373 178Q323 145 266 145Q207 145 165 178L138 153Q127 143 116 143Q110 143 100 153L97 156Q91 162 91 170Q91 180 104 193L130 217Q107 254 107 300Q107 374 153 427L131 450Q122 461 122 470Q122 480 131 489L133 491Q141 499 152 499Q165 499 173
489L195 465Q246 500 303 500Q360 500 404 466L430 490Q442 500 451 500Q455 500 460 498ZM263 439T234 421T186 373T168 309Q168 265 197 236T272 206Q305 206 335 223T383 270T402 333Q402 378 372 408T297 439Q263 439 234 421Z" />
<glyph unicode="&#xa5;" glyph-name="yen" horiz-adv-x="600" d="M606 681T596 667L405 422H532Q550 422 550 401L549 392L548 383Q545 355 524 355H353L343 259H514Q532 259 532 238L531 229L530 220Q527 192 506 192H336L318 20Q317 9 306 4T276 -2H268Q247
-2 239 3T230 20L248 192H83Q64 192 64 213L65 222L66 231Q69 259 91 259H255L265 355H101Q82 355 82 376L83 385L84 394Q87 422 109 422H229L89 667Q83 676 83 683Q83 693 93 697T130 702H139Q156 702 166 699T181 687L319 441L513 688Q523 702 559 702H570Q606
701 606 686Q606 681 596 667Z" />
<glyph unicode="&#xa6;" glyph-name="brokenbar" horiz-adv-x="250" d="M194 770T199 765T204 748Q204 736 192 616T170 425Q167 403 144 403H134Q121 403 117 408T112 425Q112 435 120 501Q139 653 146 748Q148 770 172 770H182Q194 770 199 765ZM137 226T142
221T147 204Q147 192 135 72T113 -118Q110 -140 87 -140H77Q64 -140 60 -135T55 -118Q55 -116 64 -37Q85 147 89 204Q91 226 115 226H125Q137 226 142 221Z" />
<glyph unicode="&#xa7;" glyph-name="section" horiz-adv-x="429" d="M125 -6T88 6T50 36Q50 47 64 68T87 90Q89 90 112 78T174 66Q216 66 240 84T265 132Q265 159 247 171T187 197L160 206Q116 222 88 254T59 335Q59 422 125 474Q96 503 96 551Q96 619 145 662T277
706Q323 706 360 694T398 664Q398 653 384 632T361 610Q359 610 336 622T273 634Q231 634 207 617T183 569Q183 542 202 529T246 508T281 497Q328 481 358 449T389 367Q389 316 369 282T320 227Q352 198 352 149Q352 105 330 70T266 15T171 -6Q125 -6 88 6ZM268
273T285 296T303 350Q303 387 280 403T209 435Q179 427 162 404T144 348Q144 314 167 297T238 266Q268 273 285 296Z" />
<glyph unicode="&#xa8;" glyph-name="dieresis" horiz-adv-x="239" d="M56 597T46 602T38 619L44 675Q46 687 56 692T90 697Q135 697 132 675L126 619Q124 608 114 603T80 597Q56 597 46 602ZM185 597T188 619L194 675Q196 686 206 691T240 697Q285 697 282 675L276
619Q274 607 264 602T230 597Q185 597 188 619Z" />
<glyph unicode="&#xa9;" glyph-name="copyright" horiz-adv-x="739" d="M467 708T549 661T680 532T729 352Q729 254 681 172T550 41T369 -7Q271 -7 189 41T58 171T10 352Q10 450 58 531T188 660T369 708Q467 708 549 661ZM285 660T214 619T100 507T58 352Q58 268
100 197T213 83T369 41Q454 41 525 83T639 196T681 352Q681 436 639 507T526 619T369 660Q285 660 214 619ZM430 560T465 548T501 523Q501 515 494 502T480 488Q479 488 455 501T388 515Q316 515 282 475T247 347Q247 261 281 221T385 180Q415 180 436 187T471
202T488 210Q494 210 501 197T509 178Q509 170 492 160T447 142T385 135Q287 135 240 187T193 347Q193 560 387 560Q430 560 465 548Z" />
<glyph unicode="&#xaa;" glyph-name="ordfeminine" horiz-adv-x="319" d="M117 441T88 466T59 549Q59 619 95 663T192 708Q214 708 232 700T260 681Q264 694 268 700T283 706H292Q299 706 302 703T304 691L284 497V493Q284 476 297 476Q303 476 308 477T316 479Q319
479 319 475V472Q319 464 317 457Q315 449 306 445T287 441Q262 441 251 454T242 498Q209 441 153 441Q117 441 88 466ZM184 486T206 504T241 563L247 622Q249 638 251 645Q228 663 195 663Q110 663 110 554Q110 486 164 486Q184 486 206 504Z" />
<glyph unicode="&#xab;" glyph-name="guillemotleft" horiz-adv-x="471" d="M177 61T167 74L54 230Q44 244 44 255Q44 270 59 286L206 442Q218 454 229 454Q238 454 249 445T261 424Q261 413 251 402L125 258L220 113Q228 101 228 91Q228 83 215 72T188 61Q177
61 167 74ZM349 61T339 74L226 230Q216 244 216 255Q216 270 231 286L378 442Q390 454 401 454Q410 454 421 445T433 424Q433 413 423 402L297 258L392 113Q400 101 400 91Q400 83 387 72T360 61Q349 61 339 74Z" />
<glyph unicode="&#xac;" glyph-name="logicalnot" horiz-adv-x="560" d="M441 77T434 83T429 101L445 265H63Q41 265 44 293L45 306Q47 323 52 330T70 338H498Q514 338 520 331T525 306L503 99Q501 77 469 77H459Q441 77 434 83Z" />
<glyph unicode="&#xad;" glyph-name="uni00AD" horiz-adv-x="320" d="M42 229T45 257L46 271Q47 288 53 294T72 301H257Q279 301 276 273L275 259Q273 229 249 229H65Q42 229 45 257Z" />
<glyph unicode="&#xae;" glyph-name="registered" horiz-adv-x="739" d="M271 -6T189 42T58 172T10 353Q10 451 58 532T188 661T369 709Q467 709 549 662T680 533T729 353Q729 255 681 173T550 42T369 -6Q271 -6 189 42ZM454 42T525 84T639 197T681 353Q681 437
639 508T526 620T369 661Q285 661 214 620T100 508T58 353Q58 269 100 198T213 84T369 42Q454 42 525 84ZM249 144T249 157V540Q249 550 253 554T267 558H366Q437 558 472 533T508 454Q508 417 490 393T440 355V351Q457 345 468 329T493 278L539 162L541 153Q541
144 516 144H510Q501 144 495 146T487 153L442 269Q429 303 410 315T354 327H301V157Q301 144 277 144H273Q249 144 249 157ZM379 372Q410 372 432 393T454 444Q454 479 433 496T375 513H301V372H379Z" />
<glyph unicode="&#xaf;" glyph-name="overscore" horiz-adv-x="253" d="M46 612T42 619T40 642L41 652Q44 682 64 682H277Q287 682 291 675T294 652L293 642Q290 612 270 612H57Q46 612 42 619Z" />
<glyph unicode="&#xb0;" glyph-name="degree" horiz-adv-x="345" d="M264 706T298 672T333 587Q333 546 314 513T260 460T186 441Q133 441 100 475T66 560Q66 601 85 634T137 686T213 706Q264 706 298 672ZM170 661T143 632T115 563Q115 531 136 509T190 486Q228
486 255 513T283 582Q283 615 262 638T209 661Q170 661 143 632Z" />
<glyph unicode="&#xb1;" glyph-name="plusminus" horiz-adv-x="560" d="M247 128T241 133T236 150L254 327H79Q57 327 60 353L61 366Q62 383 67 388T85 394H261L280 573Q281 584 288 588T312 593H319Q335 593 341 588T347 571L328 394H503Q512 394 517 389T521
370L520 355Q519 340 512 334T495 327H321L302 148Q301 128 270 128H263Q247 128 241 133ZM24 0T27 26L28 39Q29 56 34 61T52 67H468Q477 67 482 62T486 43L485 28Q484 13 477 7T460 0H46Q24 0 27 26Z" />
<glyph unicode="&#xb2;" glyph-name="uni00B2" horiz-adv-x="310" d="M47 350T45 355T42 367Q42 381 50 391L216 575Q245 607 255 625T265 667Q265 692 247 706T198 720Q174 720 157 714T125 701T107 693Q103 693 98 702T92 719Q92 736 131 749T202 762Q255 762
285 739T316 675Q316 646 307 624T288 590T251 548L110 391H285Q297 391 295 374L294 366Q292 350 280 350H51Q47 350 45 355Z" />
<glyph unicode="&#xb3;" glyph-name="uni00B3" horiz-adv-x="310" d="M114 344T79 355T44 377Q44 384 53 395T68 407Q71 407 98 397T162 387Q201 387 226 408T252 476Q252 514 229 529T171 545H152Q147 545 145 549T142 563V569Q142 578 146 582T156 587H173Q215
587 237 612T260 665Q260 685 243 702T191 720Q153 720 133 711T109 701Q105 701 99 712T93 730Q93 743 129 752T196 762Q246 762 278 737T310 668Q310 632 290 607T240 573V570Q266 563 284 539T303 477Q303 417 264 381T163 344Q114 344 79 355Z" />
<glyph unicode="&#xb4;" glyph-name="acute" horiz-adv-x="161" d="M34 576T34 588Q34 594 48 616L96 692Q105 706 118 712T161 718Q207 718 207 703Q207 690 176 660L115 600Q100 586 89 581T55 576Q34 576 34 588Z" />
<glyph unicode="&#xb5;" glyph-name="uni00B5" horiz-adv-x="566" d="M546 71T546 64Q546 49 542 27Q539 10 520 2T482 -6Q434 -6 413 20T392 102Q319 -6 215 -6Q196 -6 176 0T140 16Q143 -19 143 -54Q143 -123 133 -186Q132 -196 121 -202T91 -208H87Q68 -208
58 -202T49 -187L120 503Q121 515 131 520T162 525H166Q187 525 195 520T204 503L168 144Q164 106 184 87T244 67Q286 67 330 106T404 237L432 503Q433 515 443 520T474 525H478Q499 525 508 520T516 503L477 107Q474 80 484 73T513 66Q520 66 528 68T540 71Q546
71 546 64Z" />
<glyph unicode="&#xb6;" glyph-name="paragraph" horiz-adv-x="515" d="M206 -173T203 -168T201 -149L241 247Q159 257 110 314T61 457Q61 529 95 584T188 669T313 700H526Q538 700 541 696T544 680L542 658Q541 638 520 638H484L401 -151Q400 -160 394 -166T379
-173H357Q337 -173 340 -149L422 638H344L261 -151Q260 -160 254 -166T239 -173H217Q206 -173 203 -168Z" />
<glyph unicode="&#xb7;" glyph-name="middot" horiz-adv-x="267" d="M120 309T106 322T92 356Q92 381 107 396T147 412Q167 412 181 398T195 364Q195 338 180 324T140 309Q120 309 106 322Z" />
<glyph unicode="&#xb8;" glyph-name="cedilla" horiz-adv-x="231" d="M190 -57T190 -121Q190 -161 158 -185T70 -210Q29 -210 -8 -199T-45 -166Q-45 -157 -39 -149T-23 -141Q-19 -141 1 -147Q38 -161 66 -161Q94 -161 110 -151T126 -124Q126 -109 115 -103T83
-93Q68 -90 61 -87T54 -77Q54 -68 81 0H128L106 -54Q190 -57 190 -121Z" />
<glyph unicode="&#xb9;" glyph-name="uni00B9" horiz-adv-x="310" d="M167 348T161 351T156 362L193 711L119 694H117Q112 694 110 701T108 716Q108 726 110 729T119 735L228 763H231Q237 763 241 759T245 751L204 362Q203 355 196 352T181 348H176Q167 348 161 351Z" />
<glyph unicode="&#xba;" glyph-name="ordmasculine" horiz-adv-x="337" d="M141 441T114 472T87 564Q87 634 119 670T213 706Q263 706 289 674T316 581Q316 512 285 477T193 441Q141 441 114 472ZM230 486T248 509T266 579Q266 661 207 661Q173 661 155 637T137
566Q137 527 152 507T196 486Q230 486 248 509Z" />
<glyph unicode="&#xbb;" glyph-name="guillemotright" horiz-adv-x="471" d="M121 454T131 441L244 285Q254 271 254 260Q254 245 239 229L92 73Q80 61 69 61Q60 61 49 70T37 91Q37 102 47 113L173 257L78 402Q70 414 70 424Q70 432 83 443T110 454Q121 454 131
441ZM293 454T303 441L416 285Q426 271 426 260Q426 245 411 229L264 73Q252 61 241 61Q232 61 221 70T209 91Q209 102 219 113L345 257L250 402Q242 414 242 424Q242 432 255 443T282 454Q293 454 303 441Z" />
<glyph unicode="&#xbc;" glyph-name="onequarter" horiz-adv-x="750" d="M397 288T391 291T386 302L423 651L349 634H347Q342 634 340 641T338 656Q338 666 340 669T349 675L458 703H461Q467 703 471 699T475 691L434 302Q433 295 426 292T411 288H406Q397 288
391 291ZM573 -2T574 11L583 96H410Q404 96 400 104T396 121Q396 128 400 133L618 401Q624 409 637 409H647Q655 409 659 406T663 396L635 137H675Q687 137 685 120L684 111Q683 102 680 99T669 96H631L622 11Q621 -2 604 -2H590Q573 -2 574 11ZM588 137L604 291Q607
312 611 329L609 330L454 137H588ZM109 -2T104 -1T99 4Q99 8 104 15L590 695Q594 700 598 701T613 703H619Q640 703 640 697Q640 693 635 686L154 10Q149 3 143 1T125 -2H121Q109 -2 104 -1Z" />
<glyph unicode="&#xbd;" glyph-name="onehalf" horiz-adv-x="750" d="M397 288T391 291T386 302L423 651L349 634H347Q342 634 340 641T338 656Q338 666 340 669T349 675L458 703H461Q467 703 471 699T475 691L434 302Q433 295 426 292T411 288H406Q397 288 391
291ZM426 0T424 5T421 17Q421 31 429 41L595 225Q624 257 634 275T644 317Q644 342 626 356T577 370Q553 370 536 364T504 351T486 343Q482 343 477 352T471 369Q471 386 510 399T581 412Q634 412 664 389T695 325Q695 296 686 274T667 240T630 198L489 41H664Q676
41 674 24L673 16Q671 0 659 0H430Q426 0 424 5ZM86 -2T81 -1T76 4Q76 8 81 15L567 695Q571 700 575 701T590 703H596Q617 703 617 697Q617 693 612 686L131 10Q126 3 120 1T102 -2H98Q86 -2 81 -1Z" />
<glyph unicode="&#xbe;" glyph-name="threequarters" horiz-adv-x="750" d="M352 284T317 295T282 317Q282 324 291 335T306 347Q309 347 336 337T400 327Q439 327 464 348T490 416Q490 454 467 469T409 485H390Q385 485 383 489T380 503V509Q380 518 384 522T394
527H411Q453 527 475 552T498 605Q498 625 481 642T429 660Q391 660 371 651T347 641Q343 641 337 652T331 670Q331 683 367 692T434 702Q484 702 516 677T548 608Q548 572 528 547T478 513V510Q504 503 522 479T541 417Q541 357 502 321T401 284Q352 284 317 295ZM573
-2T574 11L583 96H410Q404 96 400 104T396 121Q396 128 400 133L618 401Q624 409 637 409H647Q655 409 659 406T663 396L635 137H675Q687 137 685 120L684 111Q683 102 680 99T669 96H631L622 11Q621 -2 604 -2H590Q573 -2 574 11ZM588 137L604 291Q607 312 611
329L609 330L454 137H588ZM131 -2T126 -1T121 4Q121 8 126 15L612 695Q616 700 620 701T635 703H641Q662 703 662 697Q662 693 657 686L176 10Q171 3 165 1T147 -2H143Q131 -2 126 -1Z" />
<glyph unicode="&#xbf;" glyph-name="questiondown" horiz-adv-x="425" d="M331 525T339 520T347 503L340 437Q338 415 298 415H281Q260 415 252 420T243 437L250 503Q253 525 293 525H310Q331 525 339 520ZM316 321T316 300Q316 268 288 224T213 139Q172 102
151 80T116 33T102 -20Q102 -109 218 -109Q246 -109 270 -102T321 -84Q341 -75 346 -75Q353 -75 362 -93T372 -124Q372 -149 314 -166T194 -183Q105 -183 56 -141T6 -33Q6 7 24 41T67 101T137 168Q180 206 205 236T238 301Q240 311 248 316T273 321H288Q316 321
316 300Z" />
<glyph unicode="&#xc0;" glyph-name="Agrave" horiz-adv-x="613" d="M-13 -2T-13 14Q-13 19 -8 29L297 686Q304 702 338 702H367Q402 702 406 686L574 28Q575 24 575 18Q575 -2 531 -2H523Q488 -2 484 14L442 178H148L74 14Q67 -2 33 -2H28Q-13 -2 -13 14ZM423
254L350 552Q344 575 344 610H342Q330 573 321 552L184 254H423ZM384 752T371 756T337 773L286 806Q264 820 257 828T250 843Q250 864 305 864Q338 864 354 858T389 829L427 784Q436 774 436 766Q436 759 428 756T408 752Q384 752 371 756Z" />
<glyph unicode="&#xc1;" glyph-name="Aacute" horiz-adv-x="613" d="M-13 -2T-13 14Q-13 19 -8 29L297 686Q304 702 338 702H367Q402 702 406 686L574 28Q575 24 575 18Q575 -2 531 -2H523Q488 -2 484 14L442 178H148L74 14Q67 -2 33 -2H28Q-13 -2 -13 14ZM423
254L350 552Q344 575 344 610H342Q330 573 321 552L184 254H423ZM285 752T279 755T272 764Q272 771 285 784L345 841Q359 854 375 859T423 864Q447 864 461 860T475 847Q475 838 466 830T430 806L373 773Q350 760 336 756T297 752Q285 752 279 755Z" />
<glyph unicode="&#xc2;" glyph-name="Acircumflex" horiz-adv-x="613" d="M-13 -2T-13 14Q-13 19 -8 29L297 686Q304 702 338 702H367Q402 702 406 686L574 28Q575 24 575 18Q575 -2 531 -2H523Q488 -2 484 14L442 178H148L74 14Q67 -2 33 -2H28Q-13 -2 -13 14ZM423
254L350 552Q344 575 344 610H342Q330 573 321 552L184 254H423ZM227 742T227 752Q227 760 244 777L301 832Q314 845 325 849T357 854H378Q397 854 407 850T429 832L474 779Q482 770 484 765T487 753Q487 742 464 742Q442 742 424 755L362 799L293 757Q269 742
245 742Q227 742 227 752Z" />
<glyph unicode="&#xc3;" glyph-name="Atilde" horiz-adv-x="613" d="M-13 -2T-13 14Q-13 19 -8 29L297 686Q304 702 338 702H367Q402 702 406 686L574 28Q575 24 575 18Q575 -2 531 -2H523Q488 -2 484 14L442 178H148L74 14Q67 -2 33 -2H28Q-13 -2 -13 14ZM423
254L350 552Q344 575 344 610H342Q330 573 321 552L184 254H423ZM416 756T393 762T342 780Q324 787 307 792T277 797Q260 797 249 790T225 771Q224 770 218 764T206 758Q198 758 188 764T178 777Q178 782 183 793Q197 825 223 843T283 861Q303 861 323 855T377
837Q402 827 417 823T446 818Q466 818 478 826T505 848Q516 861 522 861Q529 861 538 855T548 842Q548 837 543 827Q510 756 439 756Q416 756 393 762Z" />
<glyph unicode="&#xc4;" glyph-name="Adieresis" horiz-adv-x="613" d="M-13 -2T-13 14Q-13 19 -8 29L297 686Q304 702 338 702H367Q402 702 406 686L574 28Q575 24 575 18Q575 -2 531 -2H523Q488 -2 484 14L442 178H148L74 14Q67 -2 33 -2H28Q-13 -2 -13 14ZM423
254L350 552Q344 575 344 610H342Q330 573 321 552L184 254H423ZM251 758T243 764T236 780L242 836Q243 845 251 851T288 858Q316 858 323 852T330 836L324 780Q322 771 315 765T278 758Q251 758 243 764ZM393 758T396 780L402 836Q404 845 411 851T448 858Q475
858 483 852T490 836L484 780Q483 771 475 765T438 758Q393 758 396 780Z" />
<glyph unicode="&#xc5;" glyph-name="Aring" horiz-adv-x="613" d="M-13 -2T-13 14Q-13 19 -8 29L297 686Q304 702 338 702H367Q402 702 406 686L574 28Q575 24 575 18Q575 -2 531 -2H523Q488 -2 484 14L442 178H148L74 14Q67 -2 33 -2H28Q-13 -2 -13 14ZM423
254L350 552Q344 575 344 610H342Q330 573 321 552L184 254H423ZM325 747T303 769T281 824Q281 862 308 889T374 916Q407 916 429 894T451 838Q451 800 424 774T358 747Q325 747 303 769ZM378 792T390 805T403 836Q403 851 394 861T370 871Q353 871 341 858T329
827Q329 812 338 802T361 792Q378 792 390 805Z" />
<glyph unicode="&#xc6;" glyph-name="AE" horiz-adv-x="915" d="M-30 -2T-38 1T-47 13Q-47 21 -41 31L347 673Q355 687 365 693T392 700H838Q850 700 855 695T860 675L858 654Q856 624 830 624H468L494 396H775Q787 396 792 391T797 371L795 350Q793 320 767 320H502L530
76H774Q786 76 791 71T796 51L794 30Q792 0 766 0H478Q462 0 455 7T445 29L429 178H134L37 14Q27 -2 -4 -2H-9Q-30 -2 -38 1ZM419 253L389 552V610H387L360 552L180 253H419Z" />
<glyph unicode="&#xc7;" glyph-name="Ccedilla" horiz-adv-x="619" d="M588 657T588 645Q588 633 573 610T548 586Q545 586 524 598T472 620T398 630Q266 630 198 543T130 285Q130 175 180 123T335 70Q384 70 420 82T492 111Q507 120 512 120Q520 120 530 100T541
67Q541 60 532 51T506 33Q475 17 427 6T328 -6L308 -54Q392 -57 392 -121Q392 -161 360 -185T272 -210Q231 -210 194 -199T157 -166Q157 -157 163 -149T179 -141Q183 -141 203 -147Q240 -161 268 -161Q296 -161 312 -151T328 -124Q328 -109 317 -103T285 -93Q270
-90 263 -87T256 -77Q256 -70 281 -4Q158 6 98 74T38 275Q38 484 132 595T404 706Q452 706 497 696T567 670Q588 657 588 645Z" />
<glyph unicode="&#xc8;" glyph-name="Egrave" horiz-adv-x="546" d="M57 0T51 6T45 29L112 669Q113 685 121 692T145 700H497Q517 700 516 672L515 657Q512 624 489 624H195L171 396H433Q453 396 452 368L451 353Q448 320 425 320H163L138 76H433Q453 76 452 48L451
33Q448 0 425 0H72Q57 0 51 6ZM352 752T339 756T305 773L254 806Q232 820 225 828T218 843Q218 864 273 864Q306 864 322 858T357 829L395 784Q404 774 404 766Q404 759 396 756T376 752Q352 752 339 756Z" />
<glyph unicode="&#xc9;" glyph-name="Eacute" horiz-adv-x="546" d="M57 0T51 6T45 29L112 669Q113 685 121 692T145 700H497Q517 700 516 672L515 657Q512 624 489 624H195L171 396H433Q453 396 452 368L451 353Q448 320 425 320H163L138 76H433Q453 76 452 48L451
33Q448 0 425 0H72Q57 0 51 6ZM253 752T247 755T240 764Q240 771 253 784L313 841Q327 854 343 859T391 864Q415 864 429 860T443 847Q443 838 434 830T398 806L341 773Q318 760 304 756T265 752Q253 752 247 755Z" />
<glyph unicode="&#xca;" glyph-name="Ecircumflex" horiz-adv-x="546" d="M57 0T51 6T45 29L112 669Q113 685 121 692T145 700H497Q517 700 516 672L515 657Q512 624 489 624H195L171 396H433Q453 396 452 368L451 353Q448 320 425 320H163L138 76H433Q453 76
452 48L451 33Q448 0 425 0H72Q57 0 51 6ZM195 742T195 752Q195 760 212 777L269 832Q282 845 293 849T325 854H346Q365 854 375 850T397 832L442 779Q450 770 452 765T455 753Q455 742 432 742Q410 742 392 755L330 799L261 757Q237 742 213 742Q195 742 195 752Z"
/>
<glyph unicode="&#xcb;" glyph-name="Edieresis" horiz-adv-x="546" d="M57 0T51 6T45 29L112 669Q113 685 121 692T145 700H497Q517 700 516 672L515 657Q512 624 489 624H195L171 396H433Q453 396 452 368L451 353Q448 320 425 320H163L138 76H433Q453 76 452
48L451 33Q448 0 425 0H72Q57 0 51 6ZM219 758T211 764T204 780L210 836Q211 845 219 851T256 858Q284 858 291 852T298 836L292 780Q290 771 283 765T246 758Q219 758 211 764ZM361 758T364 780L370 836Q372 845 379 851T416 858Q443 858 451 852T458 836L452
780Q451 771 443 765T406 758Q361 758 364 780Z" />
<glyph unicode="&#xcc;" glyph-name="Igrave" horiz-adv-x="283" d="M89 -2T81 3T74 21L142 680Q144 702 184 702H192Q213 702 221 697T230 680L161 20Q160 9 149 4T119 -2H111Q89 -2 81 3ZM212 752T199 756T165 773L114 806Q92 820 85 828T78 843Q78 864 133
864Q166 864 182 858T217 829L255 784Q264 774 264 766Q264 759 256 756T236 752Q212 752 199 756Z" />
<glyph unicode="&#xcd;" glyph-name="Iacute" horiz-adv-x="283" d="M89 -2T81 3T74 21L142 680Q144 702 184 702H192Q213 702 221 697T230 680L161 20Q160 9 149 4T119 -2H111Q89 -2 81 3ZM113 752T107 755T100 764Q100 771 113 784L173 841Q187 854 203 859T251
864Q275 864 289 860T303 847Q303 838 294 830T258 806L201 773Q178 760 164 756T125 752Q113 752 107 755Z" />
<glyph unicode="&#xce;" glyph-name="Icircumflex" horiz-adv-x="283" d="M89 -2T81 3T74 21L142 680Q144 702 184 702H192Q213 702 221 697T230 680L161 20Q160 9 149 4T119 -2H111Q89 -2 81 3ZM55 742T55 752Q55 760 72 777L129 832Q142 845 153 849T185 854H206Q225
854 235 850T257 832L302 779Q310 770 312 765T315 753Q315 742 292 742Q270 742 252 755L190 799L121 757Q97 742 73 742Q55 742 55 752Z" />
<glyph unicode="&#xcf;" glyph-name="Idieresis" horiz-adv-x="283" d="M89 -2T81 3T74 21L142 680Q144 702 184 702H192Q213 702 221 697T230 680L161 20Q160 9 149 4T119 -2H111Q89 -2 81 3ZM79 758T71 764T64 780L70 836Q71 845 79 851T116 858Q144 858 151
852T158 836L152 780Q150 771 143 765T106 758Q79 758 71 764ZM221 758T224 780L230 836Q232 845 239 851T276 858Q303 858 311 852T318 836L312 780Q311 771 303 765T266 758Q221 758 224 780Z" />
<glyph unicode="&#xd0;" glyph-name="Eth" horiz-adv-x="695" d="M502 700T577 632T653 415Q653 268 605 175T477 41T302 0H87Q57 0 60 24L91 320H29Q7 320 10 349L12 367Q13 383 19 389T37 396H99L127 670Q128 686 136 693T160 700H375Q502 700 577 632ZM372
76T431 109T526 215T562 401Q562 519 508 571T360 624H210L186 396H336Q348 396 353 389T356 364L355 352Q352 320 332 320H178L153 76H303Q372 76 431 109Z" />
<glyph unicode="&#xd1;" glyph-name="Ntilde" horiz-adv-x="719" d="M79 -2T71 3T62 20L131 680Q133 702 173 702H194Q210 702 219 698T234 683L481 250Q514 192 522 171T533 145L537 146Q537 180 542 232L589 680Q591 702 631 702H638Q659 702 667 697T676 680L607
20Q606 9 595 4T565 -2H545Q519 -2 511 12L249 472Q214 534 206 565L202 564Q204 530 198 484L149 20Q148 9 137 4T107 -2H100Q79 -2 71 3ZM455 756T432 762T381 780Q363 787 346 792T316 797Q299 797 288 790T264 771Q263 770 257 764T245 758Q237 758 227 764T217
777Q217 782 222 793Q236 825 262 843T322 861Q342 861 362 855T416 837Q441 827 456 823T485 818Q505 818 517 826T544 848Q555 861 561 861Q568 861 577 855T587 842Q587 837 582 827Q549 756 478 756Q455 756 432 762Z" />
<glyph unicode="&#xd2;" glyph-name="Ograve" horiz-adv-x="731" d="M209 -6T136 73T62 312Q62 486 140 596T402 706Q536 706 611 627T687 386Q687 265 647 177T529 41T345 -6Q209 -6 136 73ZM466 70T530 152T595 379Q595 507 543 568T394 630Q275 630 214 550T153
324Q153 195 205 133T352 70Q466 70 530 152ZM437 752T424 756T390 773L339 806Q317 820 310 828T303 843Q303 864 358 864Q391 864 407 858T442 829L480 784Q489 774 489 766Q489 759 481 756T461 752Q437 752 424 756Z" />
<glyph unicode="&#xd3;" glyph-name="Oacute" horiz-adv-x="731" d="M209 -6T136 73T62 312Q62 486 140 596T402 706Q536 706 611 627T687 386Q687 265 647 177T529 41T345 -6Q209 -6 136 73ZM466 70T530 152T595 379Q595 507 543 568T394 630Q275 630 214 550T153
324Q153 195 205 133T352 70Q466 70 530 152ZM326 752T320 755T313 764Q313 771 326 784L386 841Q400 854 416 859T464 864Q488 864 502 860T516 847Q516 838 507 830T471 806L414 773Q391 760 377 756T338 752Q326 752 320 755Z" />
<glyph unicode="&#xd4;" glyph-name="Ocircumflex" horiz-adv-x="731" d="M209 -6T136 73T62 312Q62 486 140 596T402 706Q536 706 611 627T687 386Q687 265 647 177T529 41T345 -6Q209 -6 136 73ZM466 70T530 152T595 379Q595 507 543 568T394 630Q275 630 214
550T153 324Q153 195 205 133T352 70Q466 70 530 152ZM268 742T268 752Q268 760 285 777L342 832Q355 845 366 849T398 854H419Q438 854 448 850T470 832L515 779Q523 770 525 765T528 753Q528 742 505 742Q483 742 465 755L403 799L334 757Q310 742 286 742Q268
742 268 752Z" />
<glyph unicode="&#xd5;" glyph-name="Otilde" horiz-adv-x="731" d="M209 -6T136 73T62 312Q62 486 140 596T402 706Q536 706 611 627T687 386Q687 265 647 177T529 41T345 -6Q209 -6 136 73ZM466 70T530 152T595 379Q595 507 543 568T394 630Q275 630 214 550T153
324Q153 195 205 133T352 70Q466 70 530 152ZM457 756T434 762T383 780Q365 787 348 792T318 797Q301 797 290 790T266 771Q265 770 259 764T247 758Q239 758 229 764T219 777Q219 782 224 793Q238 825 264 843T324 861Q344 861 364 855T418 837Q443 827 458 823T487
818Q507 818 519 826T546 848Q557 861 563 861Q570 861 579 855T589 842Q589 837 584 827Q551 756 480 756Q457 756 434 762Z" />
<glyph unicode="&#xd6;" glyph-name="Odieresis" horiz-adv-x="731" d="M209 -6T136 73T62 312Q62 486 140 596T402 706Q536 706 611 627T687 386Q687 265 647 177T529 41T345 -6Q209 -6 136 73ZM466 70T530 152T595 379Q595 507 543 568T394 630Q275 630 214
550T153 324Q153 195 205 133T352 70Q466 70 530 152ZM304 758T296 764T289 780L295 836Q296 845 304 851T341 858Q369 858 376 852T383 836L377 780Q375 771 368 765T331 758Q304 758 296 764ZM446 758T449 780L455 836Q457 845 464 851T501 858Q528 858 536 852T543
836L537 780Q536 771 528 765T491 758Q446 758 449 780Z" />
<glyph unicode="&#xd7;" glyph-name="multiply" horiz-adv-x="560" d="M62 0T48 16T34 39Q34 42 37 47T44 56L233 228L80 399Q73 406 73 416Q73 423 91 438T118 454Q125 454 132 447L285 275L473 446Q481 454 488 454Q496 454 510 439T524 413Q524 407 516 399L327
228L480 56Q485 50 485 42Q485 34 467 17T442 0Q435 0 427 8L275 181L85 8Q77 0 71 0Q62 0 48 16Z" />
<glyph unicode="&#xd8;" glyph-name="Oslash" horiz-adv-x="731" d="M703 676T696 669L630 603Q687 524 687 386Q687 265 647 177T529 41T345 -6Q190 -6 118 94L33 9Q25 1 19 1Q14 1 7 8T-1 21Q-1 27 7 35L99 127Q62 201 62 312Q62 486 140 596T402 706Q533 706
606 632L669 695Q676 702 683 702Q690 702 696 696T703 683Q703 676 696 669ZM153 251T170 198L542 569Q493 630 394 630Q275 630 214 550T153 324Q153 251 170 198ZM595 478T563 537L186 161Q234 70 352 70Q466 70 530 152T595 379Q595 478 563 537Z" />
<glyph unicode="&#xd9;" glyph-name="Ugrave" horiz-adv-x="712" d="M208 -6T143 42T78 183Q78 193 80 213L128 680Q130 702 171 702H179Q200 702 208 697T216 680L167 206Q166 201 166 190Q166 134 208 102T337 70Q425 70 477 110T538 221L586 680Q588 702 629
702H637Q658 702 666 697T674 680L626 224Q615 115 538 55T329 -6Q208 -6 143 42ZM436 752T423 756T389 773L338 806Q316 820 309 828T302 843Q302 864 357 864Q390 864 406 858T441 829L479 784Q488 774 488 766Q488 759 480 756T460 752Q436 752 423 756Z" />
<glyph unicode="&#xda;" glyph-name="Uacute" horiz-adv-x="712" d="M208 -6T143 42T78 183Q78 193 80 213L128 680Q130 702 171 702H179Q200 702 208 697T216 680L167 206Q166 201 166 190Q166 134 208 102T337 70Q425 70 477 110T538 221L586 680Q588 702 629
702H637Q658 702 666 697T674 680L626 224Q615 115 538 55T329 -6Q208 -6 143 42ZM337 752T331 755T324 764Q324 771 337 784L397 841Q411 854 427 859T475 864Q499 864 513 860T527 847Q527 838 518 830T482 806L425 773Q402 760 388 756T349 752Q337 752 331
755Z" />
<glyph unicode="&#xdb;" glyph-name="Ucircumflex" horiz-adv-x="712" d="M208 -6T143 42T78 183Q78 193 80 213L128 680Q130 702 171 702H179Q200 702 208 697T216 680L167 206Q166 201 166 190Q166 134 208 102T337 70Q425 70 477 110T538 221L586 680Q588 702
629 702H637Q658 702 666 697T674 680L626 224Q615 115 538 55T329 -6Q208 -6 143 42ZM279 742T279 752Q279 760 296 777L353 832Q366 845 377 849T409 854H430Q449 854 459 850T481 832L526 779Q534 770 536 765T539 753Q539 742 516 742Q494 742 476 755L414
799L345 757Q321 742 297 742Q279 742 279 752Z" />
<glyph unicode="&#xdc;" glyph-name="Udieresis" horiz-adv-x="712" d="M208 -6T143 42T78 183Q78 193 80 213L128 680Q130 702 171 702H179Q200 702 208 697T216 680L167 206Q166 201 166 190Q166 134 208 102T337 70Q425 70 477 110T538 221L586 680Q588 702
629 702H637Q658 702 666 697T674 680L626 224Q615 115 538 55T329 -6Q208 -6 143 42ZM303 758T295 764T288 780L294 836Q295 845 303 851T340 858Q368 858 375 852T382 836L376 780Q374 771 367 765T330 758Q303 758 295 764ZM445 758T448 780L454 836Q456 845
463 851T500 858Q527 858 535 852T542 836L536 780Q535 771 527 765T490 758Q445 758 448 780Z" />
<glyph unicode="&#xdd;" glyph-name="Yacute" horiz-adv-x="559" d="M227 -2T219 3T210 20L245 359L69 667Q63 676 63 683Q63 693 73 697T110 702H119Q136 702 146 699T161 687L299 441L493 688Q503 702 539 702H550Q586 701 586 686Q586 681 576 667L333 356L298
20Q297 9 286 4T256 -2H248Q227 -2 219 3ZM260 752T254 755T247 764Q247 771 260 784L320 841Q334 854 350 859T398 864Q422 864 436 860T450 847Q450 838 441 830T405 806L348 773Q325 760 311 756T272 752Q260 752 254 755Z" />
<glyph unicode="&#xde;" glyph-name="Thorn" horiz-adv-x="567" d="M67 -2T59 3T50 20L119 680Q120 690 130 696T161 702H169Q190 702 198 697T207 680L196 578H321Q435 578 490 533T546 397Q546 296 483 236T309 176H154L138 20Q137 10 126 4T96 -2H88Q67 -2
59 3ZM318 252Q382 252 418 288T454 386Q454 444 419 473T310 502H188L162 252H318Z" />
<glyph unicode="&#xdf;" glyph-name="germandbls" horiz-adv-x="554" d="M71 -2T62 4T55 23L107 521Q112 575 141 617T218 682T324 706Q406 706 455 672T505 561Q505 509 473 459T386 387V384Q441 371 470 330T499 230Q499 158 466 106T379 27T261 0H227Q207 0
210 27L213 52Q214 61 219 66T235 72H270Q308 72 340 90T391 143T411 225Q411 278 379 309T298 340H263Q244 340 246 367L248 389Q249 399 255 405T271 412H283Q317 412 347 430T396 478T415 545Q415 594 387 614T314 634Q263 634 230 604T191 521L138 20Q135 -2
96 -2H92Q71 -2 62 4Z" />
<glyph unicode="&#xe0;" glyph-name="agrave" horiz-adv-x="545" d="M169 -6T131 13T67 81T40 210Q40 303 70 375T156 488T285 529Q355 529 412 475Q421 502 429 513T457 525H463Q478 525 483 518T487 494L448 107Q443 64 474 64Q486 64 496 67T511 71Q517 71
517 63Q517 49 513 27Q510 10 491 2T453 -6Q405 -6 383 21T363 102Q334 46 294 20T207 -6Q169 -6 131 13ZM265 67T306 106T375 236L390 367Q393 398 397 417Q348 456 281 456Q231 456 197 422T145 333T127 216Q127 136 154 102T226 67Q265 67 306 106ZM320 576T309
580T286 600L239 660Q228 674 222 684T216 700Q216 710 228 714T266 718Q295 718 307 712T325 692L357 616Q365 597 365 590Q365 583 359 580T342 576Q320 576 309 580Z" />
<glyph unicode="&#xe1;" glyph-name="aacute" horiz-adv-x="545" d="M169 -6T131 13T67 81T40 210Q40 303 70 375T156 488T285 529Q355 529 412 475Q421 502 429 513T457 525H463Q478 525 483 518T487 494L448 107Q443 64 474 64Q486 64 496 67T511 71Q517 71
517 63Q517 49 513 27Q510 10 491 2T453 -6Q405 -6 383 21T363 102Q334 46 294 20T207 -6Q169 -6 131 13ZM265 67T306 106T375 236L390 367Q393 398 397 417Q348 456 281 456Q231 456 197 422T145 333T127 216Q127 136 154 102T226 67Q265 67 306 106ZM239 576T239
588Q239 594 253 616L301 692Q310 706 323 712T366 718Q412 718 412 703Q412 690 381 660L320 600Q305 586 294 581T260 576Q239 576 239 588Z" />
<glyph unicode="&#xe2;" glyph-name="acircumflex" horiz-adv-x="545" d="M169 -6T131 13T67 81T40 210Q40 303 70 375T156 488T285 529Q355 529 412 475Q421 502 429 513T457 525H463Q478 525 483 518T487 494L448 107Q443 64 474 64Q486 64 496 67T511 71Q517
71 517 63Q517 49 513 27Q510 10 491 2T453 -6Q405 -6 383 21T363 102Q334 46 294 20T207 -6Q169 -6 131 13ZM265 67T306 106T375 236L390 367Q393 398 397 417Q348 456 281 456Q231 456 197 422T145 333T127 216Q127 136 154 102T226 67Q265 67 306 106ZM184 576T184
588Q184 594 198 616L246 692Q255 706 268 712T311 718H327Q355 718 367 712T386 692L418 616Q419 613 422 605T426 591Q426 576 400 576Q383 576 375 582T357 600L314 661L257 600Q245 587 236 582T208 576Q184 576 184 588Z" />
<glyph unicode="&#xe3;" glyph-name="atilde" horiz-adv-x="545" d="M169 -6T131 13T67 81T40 210Q40 303 70 375T156 488T285 529Q355 529 412 475Q421 502 429 513T457 525H463Q478 525 483 518T487 494L448 107Q443 64 474 64Q486 64 496 67T511 71Q517 71
517 63Q517 49 513 27Q510 10 491 2T453 -6Q405 -6 383 21T363 102Q334 46 294 20T207 -6Q169 -6 131 13ZM265 67T306 106T375 236L390 367Q393 398 397 417Q348 456 281 456Q231 456 197 422T145 333T127 216Q127 136 154 102T226 67Q265 67 306 106ZM162 589T151
595T139 609Q139 614 144 624Q179 692 245 692Q262 692 276 688T317 672Q336 663 348 659T372 655Q395 655 409 663T434 684T450 696Q455 696 467 689T479 676Q479 672 474 661Q444 593 373 593Q357 593 340 598T295 614Q258 630 243 630Q222 630 209 622T185 601Q175
589 168 589Q162 589 151 595Z" />
<glyph unicode="&#xe4;" glyph-name="adieresis" horiz-adv-x="545" d="M169 -6T131 13T67 81T40 210Q40 303 70 375T156 488T285 529Q355 529 412 475Q421 502 429 513T457 525H463Q478 525 483 518T487 494L448 107Q443 64 474 64Q486 64 496 67T511 71Q517
71 517 63Q517 49 513 27Q510 10 491 2T453 -6Q405 -6 383 21T363 102Q334 46 294 20T207 -6Q169 -6 131 13ZM265 67T306 106T375 236L390 367Q393 398 397 417Q348 456 281 456Q231 456 197 422T145 333T127 216Q127 136 154 102T226 67Q265 67 306 106ZM212 597T202
602T194 619L200 675Q202 687 212 692T246 697Q291 697 288 675L282 619Q280 608 270 603T236 597Q212 597 202 602ZM341 597T344 619L350 675Q352 686 362 691T396 697Q441 697 438 675L432 619Q430 607 420 602T386 597Q341 597 344 619Z" />
<glyph unicode="&#xe5;" glyph-name="aring" horiz-adv-x="545" d="M169 -6T131 13T67 81T40 210Q40 303 70 375T156 488T285 529Q355 529 412 475Q421 502 429 513T457 525H463Q478 525 483 518T487 494L448 107Q443 64 474 64Q486 64 496 67T511 71Q517 71 517
63Q517 49 513 27Q510 10 491 2T453 -6Q405 -6 383 21T363 102Q334 46 294 20T207 -6Q169 -6 131 13ZM265 67T306 106T375 236L390 367Q393 398 397 417Q348 456 281 456Q231 456 197 422T145 333T127 216Q127 136 154 102T226 67Q265 67 306 106ZM270 570T249
591T227 645Q227 683 254 711T321 739Q354 739 375 718T397 663Q397 625 369 598T303 570Q270 570 249 591ZM324 617T336 629T348 658Q348 673 339 682T315 692Q300 692 288 680T276 650Q276 636 285 627T308 617Q324 617 336 629Z" />
<glyph unicode="&#xe6;" glyph-name="ae" horiz-adv-x="819" d="M114 -6T72 26T29 123Q29 222 114 257T339 296Q351 362 383 414Q362 457 285 457Q241 457 207 447T150 426T125 415Q115 415 105 434T95 464Q95 477 123 492T196 518T290 529Q341 529 379 516T440
478Q507 529 606 529Q665 529 702 509T757 458T774 396Q774 298 694 262T458 226H418L417 205Q417 134 452 100T564 66Q606 66 637 77T698 105Q715 115 719 115Q723 115 724 113T726 103Q726 84 721 58Q717 36 687 22T620 1T557 -6Q431 -6 375 58Q340 30 288 12T185
-6Q114 -6 72 26ZM562 296T624 316T687 388Q687 420 663 438T597 457Q454 457 425 298Q562 296 624 316ZM270 67T343 117Q330 154 330 202Q330 218 331 226Q120 226 120 132Q120 67 197 67Q270 67 343 117Z" />
<glyph unicode="&#xe7;" glyph-name="ccedilla" horiz-adv-x="485" d="M224 457T181 394T137 212Q137 136 169 101T274 66Q325 66 380 92L392 96Q401 96 410 78T420 47Q420 35 398 23T341 2T268 -6H264L244 -54Q328 -57 328 -121Q328 -161 296 -185T208 -210Q167
-210 130 -199T93 -166Q93 -157 99 -149T115 -141Q119 -141 139 -147Q176 -161 204 -161Q232 -161 248 -151T264 -124Q264 -109 253 -103T221 -93Q206 -90 199 -87T192 -77Q192 -69 218 -3Q132 8 90 58T47 206Q47 359 117 444T315 529Q369 529 412 516T455 484Q455
472 441 451T418 429Q415 429 407 433Q359 457 306 457Q224 457 181 394Z" />
<glyph unicode="&#xe8;" glyph-name="egrave" horiz-adv-x="539" d="M170 213T133 220V210Q133 131 170 99T279 66Q321 66 352 77T413 105Q430 115 434 115Q438 115 439 113T441 103Q441 84 436 58Q432 36 402 22T335 1T272 -6Q46 -6 46 201Q46 345 113 437T315
529Q376 529 415 508T471 456T489 396Q489 300 412 257T219 213Q170 213 133 220ZM241 457T195 412T138 285H209Q272 285 337 304T402 388Q402 419 377 438T312 457Q241 457 195 412ZM332 576T321 580T298 600L251 660Q240 674 234 684T228 700Q228 710 240 714T278
718Q307 718 319 712T337 692L369 616Q377 597 377 590Q377 583 371 580T354 576Q332 576 321 580Z" />
<glyph unicode="&#xe9;" glyph-name="eacute" horiz-adv-x="539" d="M170 213T133 220V210Q133 131 170 99T279 66Q321 66 352 77T413 105Q430 115 434 115Q438 115 439 113T441 103Q441 84 436 58Q432 36 402 22T335 1T272 -6Q46 -6 46 201Q46 345 113 437T315
529Q376 529 415 508T471 456T489 396Q489 300 412 257T219 213Q170 213 133 220ZM241 457T195 412T138 285H209Q272 285 337 304T402 388Q402 419 377 438T312 457Q241 457 195 412ZM251 576T251 588Q251 594 265 616L313 692Q322 706 335 712T378 718Q424 718
424 703Q424 690 393 660L332 600Q317 586 306 581T272 576Q251 576 251 588Z" />
<glyph unicode="&#xea;" glyph-name="ecircumflex" horiz-adv-x="539" d="M170 213T133 220V210Q133 131 170 99T279 66Q321 66 352 77T413 105Q430 115 434 115Q438 115 439 113T441 103Q441 84 436 58Q432 36 402 22T335 1T272 -6Q46 -6 46 201Q46 345 113 437T315
529Q376 529 415 508T471 456T489 396Q489 300 412 257T219 213Q170 213 133 220ZM241 457T195 412T138 285H209Q272 285 337 304T402 388Q402 419 377 438T312 457Q241 457 195 412ZM196 576T196 588Q196 594 210 616L258 692Q267 706 280 712T323 718H339Q367
718 379 712T398 692L430 616Q431 613 434 605T438 591Q438 576 412 576Q395 576 387 582T369 600L326 661L269 600Q257 587 248 582T220 576Q196 576 196 588Z" />
<glyph unicode="&#xeb;" glyph-name="edieresis" horiz-adv-x="539" d="M170 213T133 220V210Q133 131 170 99T279 66Q321 66 352 77T413 105Q430 115 434 115Q438 115 439 113T441 103Q441 84 436 58Q432 36 402 22T335 1T272 -6Q46 -6 46 201Q46 345 113 437T315
529Q376 529 415 508T471 456T489 396Q489 300 412 257T219 213Q170 213 133 220ZM241 457T195 412T138 285H209Q272 285 337 304T402 388Q402 419 377 438T312 457Q241 457 195 412ZM224 597T214 602T206 619L212 675Q214 687 224 692T258 697Q303 697 300 675L294
619Q292 608 282 603T248 597Q224 597 214 602ZM353 597T356 619L362 675Q364 686 374 691T408 697Q453 697 450 675L444 619Q442 607 432 602T398 597Q353 597 356 619Z" />
<glyph unicode="&#xec;" glyph-name="igrave" horiz-adv-x="265" d="M109 -6T87 16T64 86Q64 101 65 109L104 503Q105 515 115 520T146 525H150Q171 525 180 520T188 503L149 107L148 95Q148 79 154 72T173 64Q185 64 195 67T210 71Q216 71 216 63Q216 49 212
27Q209 10 189 2T144 -6Q109 -6 87 16ZM363 576T352 580T329 600L282 660Q271 674 265 684T259 700Q259 710 271 714T309 718Q338 718 350 712T368 692L400 616Q408 597 408 590Q408 583 402 580T385 576Q363 576 352 580Z" />
<glyph unicode="&#xed;" glyph-name="iacute" horiz-adv-x="265" d="M109 -6T87 16T64 86Q64 101 65 109L104 503Q105 515 115 520T146 525H150Q171 525 180 520T188 503L149 107L148 95Q148 79 154 72T173 64Q185 64 195 67T210 71Q216 71 216 63Q216 49 212
27Q209 10 189 2T144 -6Q109 -6 87 16ZM75 576T75 588Q75 594 89 616L137 692Q146 706 159 712T202 718Q248 718 248 703Q248 690 217 660L156 600Q141 586 130 581T96 576Q75 576 75 588Z" />
<glyph unicode="&#xee;" glyph-name="icircumflex" horiz-adv-x="265" d="M109 -6T87 16T64 86Q64 101 65 109L104 503Q105 515 115 520T146 525H150Q171 525 180 520T188 503L149 107L148 95Q148 79 154 72T173 64Q185 64 195 67T210 71Q216 71 216 63Q216 49
212 27Q209 10 189 2T144 -6Q109 -6 87 16ZM285 576T285 588Q285 594 299 616L347 692Q356 706 369 712T412 718H428Q456 718 468 712T487 692L519 616Q520 613 523 605T527 591Q527 576 501 576Q484 576 476 582T458 600L415 661L358 600Q346 587 337 582T309
576Q285 576 285 588Z" />
<glyph unicode="&#xef;" glyph-name="idieresis" horiz-adv-x="265" d="M109 -6T87 16T64 86Q64 101 65 109L104 503Q105 515 115 520T146 525H150Q171 525 180 520T188 503L149 107L148 95Q148 79 154 72T173 64Q185 64 195 67T210 71Q216 71 216 63Q216 49 212
27Q209 10 189 2T144 -6Q109 -6 87 16ZM308 597T298 602T290 619L296 675Q298 687 308 692T342 697Q387 697 384 675L378 619Q376 608 366 603T332 597Q308 597 298 602ZM437 597T440 619L446 675Q448 686 458 691T492 697Q537 697 534 675L528 619Q526 607 516
602T482 597Q437 597 440 619Z" />
<glyph unicode="&#xf0;" glyph-name="eth" horiz-adv-x="569" d="M467 540T488 456T509 294Q509 208 482 141T399 34T261 -6Q157 -6 100 56T42 234Q42 321 71 388T156 492T287 529Q356 529 399 497Q382 548 351 607L260 595Q251 594 244 603T237 624Q237 638 254
640L328 650Q304 689 304 689Q300 694 300 699Q300 708 312 709Q336 713 352 713Q362 713 367 710T378 697L402 660L483 671Q494 672 499 662T504 641Q504 628 488 626L426 618Q467 540 488 456ZM341 66T381 120T422 277Q422 372 387 414T286 457Q207 457 168 402T128
244Q128 158 161 112T261 66Q341 66 381 120Z" />
<glyph unicode="&#xf1;" glyph-name="ntilde" horiz-adv-x="557" d="M524 71T524 63Q524 49 520 27Q517 10 498 2T460 -6Q371 -6 371 89Q371 104 372 112L397 369Q398 374 398 384Q398 421 378 438T322 456Q281 456 237 419T163 295L134 20Q133 9 122 4T92 -2H88Q49
-2 51 21L83 321Q94 424 94 457Q94 475 94 481T93 491Q93 505 113 509T149 514Q175 514 175 447V428Q249 529 352 529Q417 529 450 496T483 403Q483 387 482 379L455 107Q450 64 481 64Q493 64 503 67T518 71Q524 71 524 63ZM169 589T158 595T146 609Q146 614 151
624Q186 692 252 692Q269 692 283 688T324 672Q343 663 355 659T379 655Q402 655 416 663T441 684T457 696Q462 696 474 689T486 676Q486 672 481 661Q451 593 380 593Q364 593 347 598T302 614Q265 630 250 630Q229 630 216 622T192 601Q182 589 175 589Q169 589
158 595Z" />
<glyph unicode="&#xf2;" glyph-name="ograve" horiz-adv-x="569" d="M165 -6T109 53T52 219Q52 353 114 441T306 529Q406 529 461 470T517 302Q517 151 453 73T269 -6Q165 -6 109 53ZM430 66T430 300Q430 377 396 417T295 457Q216 457 177 396T138 222Q138 146
173 106T274 66Q430 66 430 300ZM311 576T300 580T277 600L230 660Q219 674 213 684T207 700Q207 710 219 714T257 718Q286 718 298 712T316 692L348 616Q356 597 356 590Q356 583 350 580T333 576Q311 576 300 580Z" />
<glyph unicode="&#xf3;" glyph-name="oacute" horiz-adv-x="569" d="M165 -6T109 53T52 219Q52 353 114 441T306 529Q406 529 461 470T517 302Q517 151 453 73T269 -6Q165 -6 109 53ZM430 66T430 300Q430 377 396 417T295 457Q216 457 177 396T138 222Q138 146
173 106T274 66Q430 66 430 300ZM230 576T230 588Q230 594 244 616L292 692Q301 706 314 712T357 718Q403 718 403 703Q403 690 372 660L311 600Q296 586 285 581T251 576Q230 576 230 588Z" />
<glyph unicode="&#xf4;" glyph-name="ocircumflex" horiz-adv-x="569" d="M165 -6T109 53T52 219Q52 353 114 441T306 529Q406 529 461 470T517 302Q517 151 453 73T269 -6Q165 -6 109 53ZM430 66T430 300Q430 377 396 417T295 457Q216 457 177 396T138 222Q138
146 173 106T274 66Q430 66 430 300ZM175 576T175 588Q175 594 189 616L237 692Q246 706 259 712T302 718H318Q346 718 358 712T377 692L409 616Q410 613 413 605T417 591Q417 576 391 576Q374 576 366 582T348 600L305 661L248 600Q236 587 227 582T199 576Q175
576 175 588Z" />
<glyph unicode="&#xf5;" glyph-name="otilde" horiz-adv-x="569" d="M165 -6T109 53T52 219Q52 353 114 441T306 529Q406 529 461 470T517 302Q517 151 453 73T269 -6Q165 -6 109 53ZM430 66T430 300Q430 377 396 417T295 457Q216 457 177 396T138 222Q138 146
173 106T274 66Q430 66 430 300ZM153 589T142 595T130 609Q130 614 135 624Q170 692 236 692Q253 692 267 688T308 672Q327 663 339 659T363 655Q386 655 400 663T425 684T441 696Q446 696 458 689T470 676Q470 672 465 661Q435 593 364 593Q348 593 331 598T286
614Q249 630 234 630Q213 630 200 622T176 601Q166 589 159 589Q153 589 142 595Z" />
<glyph unicode="&#xf6;" glyph-name="odieresis" horiz-adv-x="569" d="M165 -6T109 53T52 219Q52 353 114 441T306 529Q406 529 461 470T517 302Q517 151 453 73T269 -6Q165 -6 109 53ZM430 66T430 300Q430 377 396 417T295 457Q216 457 177 396T138 222Q138
146 173 106T274 66Q430 66 430 300ZM198 597T188 602T180 619L186 675Q188 687 198 692T232 697Q277 697 274 675L268 619Q266 608 256 603T222 597Q198 597 188 602ZM327 597T330 619L336 675Q338 686 348 691T382 697Q427 697 424 675L418 619Q416 607 406 602T372
597Q327 597 330 619Z" />
<glyph unicode="&#xf7;" glyph-name="divide" horiz-adv-x="560" d="M251 368T254 392L260 441Q262 463 302 463H306Q347 463 344 439L338 390Q335 368 296 368H292Q251 368 254 392ZM43 194T46 222L47 236Q48 253 54 259T73 266H488Q498 266 503 261T507 240L506
224Q505 194 479 194H66Q43 194 46 222ZM212 -2T215 22L221 71Q223 93 263 93H267Q308 93 305 69L299 20Q296 -2 257 -2H253Q212 -2 215 22Z" />
<glyph unicode="&#xf8;" glyph-name="oslash" horiz-adv-x="569" d="M542 494T535 487L486 436Q517 382 517 302Q517 151 453 73T269 -6Q169 -6 112 49L72 7Q65 0 58 0Q51 0 44 8T36 22Q36 28 44 36L87 80Q52 135 52 219Q52 353 114 441T306 529Q407 529 462 469L507
515Q515 523 521 523Q527 523 534 515T542 501Q542 494 535 487ZM138 178T150 146L403 407Q368 457 295 457Q216 457 177 396T138 222Q138 178 150 146ZM430 339T421 369L170 109Q205 66 274 66Q430 66 430 300Q430 339 421 369Z" />
<glyph unicode="&#xf9;" glyph-name="ugrave" horiz-adv-x="557" d="M521 71T521 63Q521 49 517 27Q514 10 495 2T457 -6Q414 -6 392 17T365 99Q293 -6 189 -6Q124 -6 91 27T58 120Q58 136 59 144L95 503Q96 515 106 520T137 525H141Q162 525 171 520T179 503L144
154Q143 149 143 139Q143 102 163 85T219 67Q261 67 305 106T379 237L407 503Q408 515 418 520T449 525H453Q474 525 483 520T491 503L452 107Q447 64 478 64Q490 64 500 67T515 71Q521 71 521 63ZM315 576T304 580T281 600L234 660Q223 674 217 684T211 700Q211
710 223 714T261 718Q290 718 302 712T320 692L352 616Q360 597 360 590Q360 583 354 580T337 576Q315 576 304 580Z" />
<glyph unicode="&#xfa;" glyph-name="uacute" horiz-adv-x="557" d="M521 71T521 63Q521 49 517 27Q514 10 495 2T457 -6Q414 -6 392 17T365 99Q293 -6 189 -6Q124 -6 91 27T58 120Q58 136 59 144L95 503Q96 515 106 520T137 525H141Q162 525 171 520T179 503L144
154Q143 149 143 139Q143 102 163 85T219 67Q261 67 305 106T379 237L407 503Q408 515 418 520T449 525H453Q474 525 483 520T491 503L452 107Q447 64 478 64Q490 64 500 67T515 71Q521 71 521 63ZM234 576T234 588Q234 594 248 616L296 692Q305 706 318 712T361
718Q407 718 407 703Q407 690 376 660L315 600Q300 586 289 581T255 576Q234 576 234 588Z" />
<glyph unicode="&#xfb;" glyph-name="ucircumflex" horiz-adv-x="557" d="M521 71T521 63Q521 49 517 27Q514 10 495 2T457 -6Q414 -6 392 17T365 99Q293 -6 189 -6Q124 -6 91 27T58 120Q58 136 59 144L95 503Q96 515 106 520T137 525H141Q162 525 171 520T179
503L144 154Q143 149 143 139Q143 102 163 85T219 67Q261 67 305 106T379 237L407 503Q408 515 418 520T449 525H453Q474 525 483 520T491 503L452 107Q447 64 478 64Q490 64 500 67T515 71Q521 71 521 63ZM179 576T179 588Q179 594 193 616L241 692Q250 706 263
712T306 718H322Q350 718 362 712T381 692L413 616Q414 613 417 605T421 591Q421 576 395 576Q378 576 370 582T352 600L309 661L252 600Q240 587 231 582T203 576Q179 576 179 588Z" />
<glyph unicode="&#xfc;" glyph-name="udieresis" horiz-adv-x="557" d="M521 71T521 63Q521 49 517 27Q514 10 495 2T457 -6Q414 -6 392 17T365 99Q293 -6 189 -6Q124 -6 91 27T58 120Q58 136 59 144L95 503Q96 515 106 520T137 525H141Q162 525 171 520T179 503L144
154Q143 149 143 139Q143 102 163 85T219 67Q261 67 305 106T379 237L407 503Q408 515 418 520T449 525H453Q474 525 483 520T491 503L452 107Q447 64 478 64Q490 64 500 67T515 71Q521 71 521 63ZM207 597T197 602T189 619L195 675Q197 687 207 692T241 697Q286
697 283 675L277 619Q275 608 265 603T231 597Q207 597 197 602ZM336 597T339 619L345 675Q347 686 357 691T391 697Q436 697 433 675L427 619Q425 607 415 602T381 597Q336 597 339 619Z" />
<glyph unicode="&#xfd;" glyph-name="yacute" horiz-adv-x="481" d="M485 525T485 509Q485 503 481 494L152 -187Q142 -208 103 -208H88Q57 -208 57 -193Q57 -188 64 -175L173 35L47 483Q46 489 44 497T41 508Q41 516 52 520T86 525H94Q128 525 132 509L208 227L229
148H231Q246 184 266 227L400 509Q408 525 443 525H447Q485 525 485 509ZM212 576T212 588Q212 594 226 616L274 692Q283 706 296 712T339 718Q385 718 385 703Q385 690 354 660L293 600Q278 586 267 581T233 576Q212 576 212 588Z" />
<glyph unicode="&#xfe;" glyph-name="thorn" horiz-adv-x="573" d="M38 -208T38 -187L135 730Q136 740 147 746T177 752H181Q219 752 219 731L188 436Q218 484 257 506T343 529Q383 529 422 510T488 442T515 313Q515 220 486 148T404 35T279 -6Q236 -6 203 9T146
45L122 -186Q121 -196 110 -202T80 -208H76Q38 -208 38 -187ZM356 66T392 134T428 307Q428 456 324 456Q285 456 244 421T174 305L153 110Q203 66 267 66Q356 66 392 134Z" />
<glyph unicode="&#xff;" glyph-name="ydieresis" horiz-adv-x="481" d="M485 525T485 509Q485 503 481 494L152 -187Q142 -208 103 -208H88Q57 -208 57 -193Q57 -188 64 -175L173 35L47 483Q46 489 44 497T41 508Q41 516 52 520T86 525H94Q128 525 132 509L208
227L229 148H231Q246 184 266 227L400 509Q408 525 443 525H447Q485 525 485 509ZM185 597T175 602T167 619L173 675Q175 687 185 692T219 697Q264 697 261 675L255 619Q253 608 243 603T209 597Q185 597 175 602ZM314 597T317 619L323 675Q325 686 335 691T369
697Q414 697 411 675L405 619Q403 607 393 602T359 597Q314 597 317 619Z" />
<glyph unicode="&#x2013;" glyph-name="endash" horiz-adv-x="500" d="M60 229T57 234T54 254L56 271Q58 289 63 295T79 301H430Q441 301 444 296T447 276L445 259Q443 241 438 235T422 229H71Q60 229 57 234Z" />
<glyph unicode="&#x2014;" glyph-name="emdash" horiz-adv-x="1000" d="M70 229T67 234T64 254L66 271Q68 289 73 295T89 301H920Q931 301 934 296T937 276L935 259Q933 241 928 235T912 229H81Q70 229 67 234Z" />
<glyph unicode="&#x2018;" glyph-name="quoteleft" horiz-adv-x="212" d="M71 531T71 559Q77 615 99 659T148 729T194 755Q205 755 213 752T222 741Q222 736 219 730T214 723Q189 685 177 649T160 563Q158 548 148 540T117 531H108Q71 531 71 559Z" />
<glyph unicode="&#x2019;" glyph-name="quoteright" horiz-adv-x="212" d="M87 530T79 533T70 544Q70 549 73 555T78 562Q103 600 115 636T132 722Q134 737 144 745T175 754H184Q221 754 221 726Q215 670 193 626T144 556T98 530Q87 530 79 533Z" />
<glyph unicode="&#x201a;" glyph-name="quotesinglbase" horiz-adv-x="198" d="M19 -116T11 -113T2 -102Q2 -97 5 -91T10 -84Q35 -46 47 -10T64 76Q66 91 76 99T107 108H116Q153 108 153 80Q147 24 125 -20T76 -90T30 -116Q19 -116 11 -113Z" />
<glyph unicode="&#x201c;" glyph-name="quotedblleft" horiz-adv-x="350" d="M215 531T215 559Q221 615 243 659T292 729T338 755Q349 755 357 752T366 741Q366 736 363 730T358 723Q333 685 321 649T304 563Q302 548 292 540T261 531H252Q215 531 215 559ZM75
531T75 559Q81 615 103 659T152 729T198 755Q209 755 217 752T226 741Q226 736 223 730T218 723Q193 685 181 649T164 563Q162 548 152 540T121 531H112Q75 531 75 559Z" />
<glyph unicode="&#x201d;" glyph-name="quotedblright" horiz-adv-x="350" d="M224 530T216 533T207 544Q207 549 210 555T215 562Q240 600 252 636T269 722Q271 737 281 745T312 754H321Q358 754 358 726Q352 670 330 626T281 556T235 530Q224 530 216 533ZM340
530T332 533T323 544Q323 549 326 555T331 562Q356 600 368 636T385 722Q387 737 397 745T428 754H437Q474 754 474 726Q468 670 446 626T397 556T351 530Q340 530 332 533Z" />
<glyph unicode="&#x201e;" glyph-name="quotedblbase" horiz-adv-x="336" d="M150 -116T142 -113T133 -102Q133 -97 136 -91T141 -84Q166 -46 178 -10T195 76Q197 91 207 99T238 108H247Q284 108 284 80Q278 24 256 -20T207 -90T161 -116Q150 -116 142 -113ZM266
-116T258 -113T249 -102Q249 -97 252 -91T257 -84Q282 -46 294 -10T311 76Q313 91 323 99T354 108H363Q400 108 400 80Q394 24 372 -20T323 -90T277 -116Q266 -116 258 -113Z" />
<glyph unicode="&#x2022;" glyph-name="bullet" horiz-adv-x="336" d="M104 201T72 233T40 313Q40 348 58 380T108 432T180 452Q229 452 261 420T293 340Q293 302 275 271T224 220T153 201Q104 201 72 233Z" />
<glyph unicode="&#x2039;" glyph-name="guilsinglleft" horiz-adv-x="300" d="M177 61T167 74L54 230Q44 244 44 255Q44 270 59 286L206 441Q219 454 228 454Q237 454 249 443T261 420Q261 413 248 398L125 258L220 113Q229 100 229 92Q229 83 216 72T188 61Q177
61 167 74Z" />
<glyph unicode="&#x203a;" glyph-name="guilsinglright" horiz-adv-x="300" d="M122 454T132 441L245 285Q255 271 255 260Q255 245 240 229L93 74Q80 61 71 61Q62 61 50 72T38 95Q38 102 51 117L174 257L79 402Q70 416 70 423Q70 432 83 443T111 454Q122 454 132 441Z" />
</font>
</defs>
</svg>
